* Dettagli Torrent   globale  | Commenti (0) 


- The Big Bang Theory S04e04 - The Hot Troll Deviation [XviD - Eng Mp3] HDTVRip by FQM [TNT Vilage] -


Download via torrent:
Categoria bittorrent SerieTv
Descrizione


Episode 4: The Hot Troll Deviation



General
Complete name                    : K:\Download Completi\the.big.bang.theory.s04e04.hdtv.xvid-fqm.avi
Format                           : AVI
Format/Info                      : Audio Video Interleave
File size                        : 175 MiB
Duration                         : 19mn 3s
Overall bit rate                 : 1 284 Kbps
Writing application              : transcode-1.0.4

Video
ID                               : 0
Format                           : MPEG-4 Visual
Format profile                   : Advanced [email protected]
Format settings, BVOP            : Yes
Format settings, QPel            : No
Format settings, GMC             : No warppoints
Format settings, Matrix          : Default (H.263)
Codec ID                         : XVID
Codec ID/Hint                    : XviD
Duration                         : 19mn 3s
Bit rate                         : 1 109 Kbps
Width                            : 624 pixels
Height                           : 352 pixels
Display aspect ratio             : 16:9
Frame rate                       : 23.976 fps
Color space                      : YUV
Chroma subsampling               : 4:2:0
Bit depth                        : 8 bits
Scan type                        : Progressive
Bits/(Pixel*Frame)               : 0.211
Stream size                      : 151 MiB (86%)
Writing library                  : XviD 1.2.1 (UTC 2008-12-04)

Audio
ID                               : 1
Format                           : MPEG Audio
Format version                   : Version 1
Format profile                   : Layer 3
Codec ID                         : 55
Codec ID/Hint                    : MP3
Duration                         : 19mn 3s
Bit rate mode                    : Variable
Bit rate                         : 128 Kbps
Channel(s)                       : 2 channels
Sampling rate                    : 48.0 KHz
Bit depth                        : 16 bits
Stream size                      : 22.2 MiB (13%)
Alignment                        : Aligned on interleaves
Interleave, duration             : 24 ms (0.58 video frame)



Info: Per scaricare devi usare un client come uTorrent o Transmission
AnnounceURL
http://tracker.tntvillage.scambioetico.org:2710/announce
Hash f355b2562d6658b7657682d2fffcf3691bed38bf
Peers seeds: 518 , leech: 49
Size 175.14 MB
Completato 7042x
Aggiunto 15.10.10 - 10:10:42
Uploader   Cer8
Votazione (Voti: 0)


Condividi questo bittorrent:


html/blog:


bbcode/forum:




Aggiungi Commento


counter