Loading...
 * Dettagli Torrent   globale  | Commenti (2) 


- - The Secret - Il segreto (2007).H265.italian.Aac.By Mul1n0 - -


Download via torrent:
Categoria bittorrent BDRip
Descrizione
The Secret - Il segreto (2007)
BY Mul1n0



.: Scheda del Film :.


Titolo originale:   The Secret - Il segreto
Nazionalità:   USA
Anno:  2007
Genere:   interviste, auto-aiuto
Regia:   Rhonda Byrne (a cura di)
Cast:

   Bob Proctor
   Joe Vitale
   John Assaraf
   John Demartini
   Denis Waitley
   Micheal Bernard Beckwith
   Bob Doyle
   Mike Dooley
   Lisa Nichols
   Bill Harris
   Fred Alan Wolf
   Marci Shimoff
   Jack Canfield
   James Ray
   David Schirmer
   John Gray
   Lee Brower
   Loral Langemeier
   Marie Diamond
   John Hagelin
   Ben Johnson
   Morris Goodman
   Hale Dwoskin


.: Trama :.


The secret - Il segreto (The Secret) è una raccolta di interviste sul filone dell'auto-aiuto del 2006 di Rhonda Byrne, basato sull'omonimo film The Secret.

L'opera, che si ispira ai principi del New Thought e in particolare all'opera di Wallace Wattles La Scienza del diventare ricchi, propone la filosofia esistenziale di alcuni filosofi, manager, formatori e scrittori motivazionali anglosassoni di successo, per lo più statunitensi. Il nucleo centrale della filosofia divulgata, ovvero del "segreto", consiste nella cosiddetta "legge di attrazione", secondo la quale ogni essere umano può agire come un magnete in grado di attirare a sé tutte le situazioni e le cose materiali che pensa con sufficiente intensità secondo il principio riassunto dal motto "chiedi-credi-ricevi"[1].

La maggior parte delle interviste contenute in The Secret è stata realizzata durante il meeting biennale del Transformational Leadership Council (TLC), organizzazione fondata da Jack Canfield, i cui membri sono esperti di marketing che vantano carriere di successo come consulenti delle migliori 500 aziende statunitensi, secondo la rivista Fortune. Nella prima metà del 2007, negli Stati Uniti, il libro ha venduto quattro volte tanto rispetto a qualsiasi altro libro, permettendo a Rhonda Byrne di ottenere un posto nella classifica pubblicata dalla rivista Time, relativa alle 100 persone più influenti del mondo[2].

In Italia il libro è stato pubblicato nell'ottobre 2007 da Macroedizioni, che ha successivamente distribuito anche il DVD contenente la versione italiana del film.


.: ScreenShot :.









.: Scheda tecnica del filmato :.


General
Unique ID                                : 75845151013494912282600602240056452086 (0x390F3EA7C3179BFC23597BDFD60663F6)
Complete name                            : C:The Secret-Il Segreto.mkv
Format                                   : Matroska
Format version                           : Version 4
File size                                : 1.37 GiB
Duration                                 : 1 h 31 min
Overall bit rate                         : 2 151 kb/s
Movie name                               : merged265
Encoded date                             : UTC 2019-11-01 22:01:34
Writing application                      : mkvmerge v38.0.0 ('The Silent Type&#39 64-bit
Writing library                          : libebml v1.3.9 + libmatroska v1.5.2

Video
ID                                       : 1
Format                                   : HEVC
Format/Info                              : High Efficiency Video Coding
Format profile                           : Main [email protected]@Main
Codec ID                                 : V_MPEGH/ISO/HEVC
Duration                                 : 1 h 31 min
Bit rate                                 : 2 021 kb/s
Width                                    : 640 pixels
Height                                   : 360 pixels
Display aspect ratio                     : 16:9
Frame rate mode                          : Constant
Frame rate                               : 25.000 FPS
Color space                              : YUV
Chroma subsampling                       : 4:2:0
Bit depth                                : 10 bits
Bits/(Pixel*Frame)                       : 0.351
Stream size                              : 1.29 GiB (94%)
Writing library                          : x265 3.2+7-37648fca915b:[Windows][GCC 9.2.0][64 bit] 10bit
Encoding settings                        : cpuid=1111039 / frame-threads=5 / numa-pools=36 / wpp / no-pmode / no-pme / no-psnr / no-ssim / log-level=2 / input-csp=1 / input-res=640x360 / interlace=0 / total-frames=136616 / level-idc=0 / high-tier=1 / uhd-bd=0 / ref=3 / no-allow-non-conformance / no-repeat-headers / annexb / no-aud / no-hrd / info / hash=0 / no-temporal-layers / open-gop / min-keyint=25 / keyint=250 / gop-lookahead=0 / bframes=4 / b-adapt=2 / b-pyramid / bframe-bias=0 / rc-lookahead=20 / lookahead-slices=0 / scenecut=40 / radl=0 / no-splice / no-intra-refresh / ctu=16 / min-cu-size=8 / no-rect / no-amp / max-tu-size=16 / tu-inter-depth=1 / tu-intra-depth=1 / limit-tu=0 / rdoq-level=0 / dynamic-rd=0.00 / no-ssim-rd / signhide / no-tskip / nr-intra=0 / nr-inter=0 / no-constrained-intra / strong-intra-smoothing / max-merge=3 / limit-refs=1 / no-limit-modes / me=1 / subme=2 / merange=57 / temporal-mvp / no-frame-dup / no-hme / weightp / no-weightb / no-analyze-src-pics / deblock=0:0 / sao / no-sao-non-deblock / rd=3 / selective-sao=4 / early-skip / rskip / no-fast-intra / no-tskip-fast / no-cu-lossless / b-intra / no-splitrd-skip / rdpenalty=0 / psy-rd=2.00 / psy-rdoq=0.00 / no-rd-refine / no-lossless / cbqpoffs=0 / crqpoffs=0 / rc=abr / bitrate=2020 / qcomp=0.60 / qpstep=4 / stats-write=0 / stats-read=2 / cplxblur=20.0 / qblur=0.5 / ipratio=1.40 / pbratio=1.30 / aq-mode=2 / aq-strength=1.00 / cutree / zone-count=0 / no-strict-cbr / qg-size=16 / no-rc-grain / qpmax=69 / qpmin=0 / no-const-vbv / sar=1 / overscan=0 / videoformat=5 / range=0 / colorprim=1 / transfer=1 / colormatrix=1 / chromaloc=0 / display-window=0 / cll=0,0 / min-luma=0 / max-luma=1023 / log2-max-poc-lsb=8 / vui-timing-info / vui-hrd-info / slices=1 / no-opt-qp-pps / no-opt-ref-list-length-pps / no-multi-pass-opt-rps / scenecut-bias=0.05 / no-opt-cu-delta-qp / no-aq-motion / no-hdr / no-hdr-opt / no-dhdr10-opt / no-idr-recovery-sei / analysis-reuse-level=5 / scale-factor=0 / refine-intra=0 / refine-inter=0 / refine-mv=1 / refine-ctu-distortion=0 / no-limit-sao / ctu-info=0 / no-lowpass-dct / refine-analysis-type=0 / copy-pic=1 / max-ausize-factor=1.0 / no-dynamic-refine / no-single-sei / no-hevc-aq / no-svt / no-field / qp-adaptation-range=1.00
Default                                  : Yes
Forced                                   : No
Color range                              : Limited
Color primaries                          : BT.709
Transfer characteristics                 : BT.709
Matrix coefficients                      : BT.709

Audio
ID                                       : 2
Format                                   : AAC LC
Format/Info                              : Advanced Audio Codec Low Complexity
Codec ID                                 : A_AAC-2
Duration                                 : 1 h 31 min
Bit rate                                 : 128 kb/s
Channel(s)                               : 2 channels
Channel layout                           : L R
Sampling rate                            : 48.0 kHz
Frame rate                               : 46.875 FPS (1024 SPF)
Compression mode                         : Lossy
Stream size                              : 83.4 MiB (6%)
Default                                  : Yes
Forced                                   : No







.: Note :.

Orario di seed e Banda disponibile: ai primi 10 completati, buon download

Info: Per scaricare devi usare un client come uTorrent o Transmission
AnnounceURL
udp://tracker.coppersurfer.tk:6969/announce
Hash e10cbe327f540e571432df6a1c5b25462a07e07e
Peers seeds: 15 , leech: 1
Size 1.37 GB
Completato 347x
Aggiunto 04.11.19 - 19:11:44
Uploader   Sfrank77
Votazione (Voti: 1)


Condividi questo bittorrent:


html/blog:


bbcode/forum:




Aggiungi Commento
Ultimi commenti
avatar   Sfrank77Sfrank77   
no, e soltanto i primi 3 minuti dell'inizio che fa cos'ì,
per il resto si sente e vede benissimo
05/11 13.48
 dinopolidinopoli   
il file non ha l'audio
05/11 04.40
Tutti commenti (2)


counter