Loading...
 * Dettagli Torrent   globale  | Commenti (0) 


- Il Trono di spade - Game of Thrones 8x05 The Bells - Le campane.720p.ita.eng.sub.ita.eng-MIRCrew -


Download via torrent:
Categoria bittorrent SerieTv
Descrizione
visitate mircrew-releases



Game of Thrones - Il Trono di spade 8x05 The Bells - Le campane.720p.ita.eng.sub.ita.eng-MIRCrew










Nazione: Stati Uniti d'America
Anno: 2019
Genere: fantastico
Stagione: 8
Episodi: 6
Durata: 52 min circa
Lingua: ITA - ENG
Ideatore: David Benioff, D.B. Weiss
Soggetto: George R. R. Martin

L'ottava e ultima stagione della serie televisiva Il Trono di Spade, composta da 6 episodi, è trasmessa sul canale statunitense HBO

Trama:

Il Trono di Spade, la Serie TV creata da David Benioff e D.B. Weiss e tratta dai romanzi di George R. R. Martin, vede sette nobili famiglie che lottano per il controllo della mitologica terra di Westeros

Storyline:

Nine noble families fight for control over the mythical lands of Westeros, while an ancient enemy returns after being dormant for thousands of years.

Cast:

Peter Dinklage, Lena Headey, Emilia Clarke, Kit Harington, Sophie Turner, Maisie Williams, Nikolaj Coster-Waldau, Iain Glen, Alfie Allen

Episodi:

1 Winterfell Grande Inverno
2 A Knight of the Seven Kingdoms - Un cavaliere dei Sette Regni
3 The Long Night - La lunga notte
4 The Last of the Starks - Gli ultimi Stark
5 The Bells - Le campane
6 ---------------------------------



DATI FILE:


General
Unique ID                                : 285130339675357120944567300719664625943 (0xD6821B1DCBE2C0DF4F67E5494D2EF917)
Complete name                            : C:Users
ootDesktopGame.of.Thrones.8x05.The Bells - Le campane .720p.ita.eng.sub.ita.eng-MIRCrewGame.of.Thrones.8x05.The Bells - Le campane .720p.ita.eng.sub.ita.eng-MIRCrew.mkv
Format                                   : Matroska
Format version                           : Version 2
File size                                : 1.25 GiB
Duration                                 : 1h 15mn
Overall bit rate                         : 2 370 Kbps
Movie name                               : MIRCrew
Encoded date                             : UTC 2019-05-20 14:18:02
Writing application                      : Lavf54.63.100
Writing library                          : Lavf54.63.100
COMMENT                                  : mircrew-releases

Video
ID                                       : 1
Format                                   : AVC
Format/Info                              : Advanced Video Codec
Format profile                           : [email protected]
Format settings, CABAC                   : Yes
Format settings, ReFrames                : 2 frames
Codec ID                                 : V_MPEG4/ISO/AVC
Duration                                 : 1h 15mn
Bit rate                                 : 2 000 Kbps
Width                                    : 1 280 pixels
Height                                   : 720 pixels
Display aspect ratio                     : 16:9
Frame rate mode                          : Variable
Frame rate                               : 25.000 fps
Color space                              : YUV
Chroma subsampling                       : 4:2:0
Bit depth                                : 8 bits
Scan type                                : Progressive
Bits/(Pixel*Frame)                       : 0.087
Stream size                              : 1.02 GiB (82%)
Writing library                          : x264 core 130 r2273
Encoding settings                        : cabac=1 / ref=2 / deblock=1:0:0 / analyse=0x1:0x131 / me=hex / subme=7 / psy=1 / psy_rd=1.00:0.00 / mixed_ref=0 / me_range=16 / chroma_me=1 / trellis=1 / 8x8dct=0 / cqm=0 / deadzone=21,11 / fast_pskip=1 / chroma_qp_offset=-2 / threads=9 / lookahead_threads=1 / sliced_threads=0 / nr=0 / decimate=1 / interlaced=0 / bluray_compat=0 / constrained_intra=0 / bframes=3 / b_pyramid=0 / b_adapt=1 / b_bias=0 / direct=3 / weightb=1 / open_gop=0 / weightp=2 / keyint=250 / keyint_min=25 / scenecut=40 / intra_refresh=0 / rc_lookahead=40 / rc=abr / mbtree=1 / bitrate=2000 / ratetol=1.0 / qcomp=0.60 / qpmin=10 / qpmax=69 / qpstep=4 / vbv_maxrate=24000 / vbv_bufsize=24000 / nal_hrd=none / ip_ratio=1.40 / aq=1:1.00
Language                                 : Italian
Default                                  : Yes
Forced                                   : No
_STATISTICS_WRITING_APP                  : mkvmerge v7.6.0 ('Garden of Dreams&#39 64bit built on Feb  8 2015 15:12:28
_STATISTICS_WRITING_DATE_UTC             : 2019-05-20 14:18:02
_STATISTICS_TAGS                         : BPS DURATION NUMBER_OF_FRAMES NUMBER_OF_BYTES
DURATION                                 : 01:15:13.920000000
NUMBER_OF_FRAMES                         : 112848
NUMBER_OF_BYTES                          : 4829702386

Audio #1
ID                                       : 2
Format                                   : AC-3
Format/Info                              : Audio Coding 3
Mode extension                           : CM (complete main)
Codec ID                                 : A_AC3
Duration                                 : 1h 15mn
Bit rate mode                            : Constant
Bit rate                                 : 192 Kbps
Channel(s)                               : 2 channels
Channel positions                        : Front: L R
Sampling rate                            : 48.0 KHz
Bit depth                                : 16 bits
Compression mode                         : Lossy
Delay relative to video                  : 1mn 5s
Stream size                              : 103 MiB (8%)
Title                                    : ITA
Language                                 : Italian
Default                                  : Yes
Forced                                   : Yes
_STATISTICS_WRITING_APP                  : mkvmerge v7.6.0 ('Garden of Dreams&#39 64bit built on Feb  8 2015 15:12:28
_STATISTICS_WRITING_DATE_UTC             : 2019-05-20 14:18:02
_STATISTICS_TAGS                         : BPS DURATION NUMBER_OF_FRAMES NUMBER_OF_BYTES
DURATION                                 : 01:15:14.016000000
NUMBER_OF_FRAMES                         : 141063
NUMBER_OF_BYTES                          : 108336384

Audio #2
ID                                       : 3
Format                                   : AC-3
Format/Info                              : Audio Coding 3
Mode extension                           : CM (complete main)
Codec ID                                 : A_AC3
Duration                                 : 1h 15mn
Bit rate mode                            : Constant
Bit rate                                 : 192 Kbps
Channel(s)                               : 2 channels
Channel positions                        : Front: L R
Sampling rate                            : 48.0 KHz
Bit depth                                : 16 bits
Compression mode                         : Lossy
Delay relative to video                  : 1mn 5s
Stream size                              : 103 MiB (8%)
Title                                    : ENG
Language                                 : English
Default                                  : No
Forced                                   : No
_STATISTICS_WRITING_APP                  : mkvmerge v7.6.0 ('Garden of Dreams&#39 64bit built on Feb  8 2015 15:12:28
_STATISTICS_WRITING_DATE_UTC             : 2019-05-20 14:18:02
_STATISTICS_TAGS                         : BPS DURATION NUMBER_OF_FRAMES NUMBER_OF_BYTES
DURATION                                 : 01:15:13.952000000
NUMBER_OF_FRAMES                         : 141061
NUMBER_OF_BYTES                          : 216669696
Info: Per scaricare devi usare un client come uTorrent o Transmission
AnnounceURL
udp://tracker.coppersurfer.tk:6969/announce
Hash 552f91fe53bd5a55e2e1aeb39546ead245ac488f
Peers seeds: 148 , leech: 6
Size 1.25 GB
Completato 3182x
Aggiunto 20.05.19 - 23:05:41
Uploader   robbyrs
Votazione (Voti: 1)


Condividi questo bittorrent:


html/blog:


bbcode/forum:




Aggiungi Commento


counter