Loading...
 * Dettagli Torrent   globale  | Commenti (0) 


- LeIene 12-05-2019 BY Mul1n0 -


Download via torrent:
Categoria bittorrent BDRip
Descrizione
LE IENE 12/05/2019 By Mul1n0[/SIZE]



.: Scheda del filmato :.

Anno: 2019
Genere: INCHIESTA
Regia: DAVIDE PARENTI

.: Descrizione :.

Programma di approfondimento e di attuailtà che propone inchieste e reportage facendo uso di uno stile irriverente e satirico.

.: ScreenShot :.








.: Scheda tecnica :.

General
Unique ID                                : 189435074229533551310232426005175405014 (0x8E83DE423275D4809EAE48677D8309D6)
Complete name                            : C:
Format                                   : Matroska
Format version                           : Version 4 / Version 2
File size                                : 2.44 GiB
Duration                                 : 3 h 30 min
Overall bit rate mode                    : Variable
Overall bit rate                         : 1 658 kb/s
Movie name                               : script
Encoded date                             : UTC 2019-05-13 10:27:32
Writing application                      : mkvmerge v8.2.0 ('World of Adventure&#39 32bit
Writing library                          : libebml v1.3.1 + libmatroska v1.4.2

Video
ID                                       : 1
Format                                   : AVC
Format/Info                              : Advanced Video Codec
Format profile                           : [email protected]
Format settings                          : CABAC / 3 Ref Frames
Format settings, CABAC                   : Yes
Format settings, ReFrames                : 3 frames
Codec ID                                 : V_MPEG4/ISO/AVC
Duration                                 : 3 h 30 min
Bit rate mode                            : Variable
Bit rate                                 : 1 529 kb/s
Maximum bit rate                         : 25.0 Mb/s
Width                                    : 640 pixels
Height                                   : 360 pixels
Display aspect ratio                     : 16:9
Frame rate mode                          : Constant
Frame rate                               : 25.000 FPS
Color space                              : YUV
Chroma subsampling                       : 4:2:0
Bit depth                                : 8 bits
Scan type                                : Progressive
Bits/(Pixel*Frame)                       : 0.265
Stream size                              : 2.25 GiB (92%)
Writing library                          : x264 core 148 r2579 73ae2d1
Encoding settings                        : cabac=1 / ref=3 / deblock=1:0:0 / analyse=0x3:0x113 / me=hex / subme=7 / psy=1 / psy_rd=1.00:0.00 / mixed_ref=1 / me_range=16 / chroma_me=1 / trellis=1 / 8x8dct=1 / cqm=0 / deadzone=21,11 / fast_pskip=1 / chroma_qp_offset=-2 / threads=11 / lookahead_threads=1 / sliced_threads=0 / nr=0 / decimate=1 / interlaced=0 / bluray_compat=0 / constrained_intra=0 / bframes=3 / b_pyramid=0 / b_adapt=1 / b_bias=0 / direct=1 / weightb=1 / open_gop=0 / weightp=2 / keyint=250 / keyint_min=25 / scenecut=40 / intra_refresh=0 / rc_lookahead=40 / rc=2pass / mbtree=1 / bitrate=1529 / ratetol=1.0 / qcomp=0.60 / qpmin=0 / qpmax=69 / qpstep=4 / cplxblur=20.0 / qblur=0.5 / vbv_maxrate=25000 / vbv_bufsize=25000 / nal_hrd=vbr / filler=0 / ip_ratio=1.40 / aq=1:1.00
Default                                  : Yes
Forced                                   : No

Audio
ID                                       : 2
Format                                   : AAC
Format/Info                              : Advanced Audio Codec
Format profile                           : LC
Codec ID                                 : A_AAC-2
Duration                                 : 3 h 30 min
Bit rate                                 : 128 kb/s
Channel(s)                               : 2 channels
Channel positions                        : Front: L R
Sampling rate                            : 48.0 kHz
Frame rate                               : 46.875 FPS (1024 SPF)
Compression mode                         : Lossy
Stream size                              : 193 MiB (8%)
Default                                  : Yes
Forced                                   : No






.: Note :.

Orario di seed e Banda disponibile:
24 / 24 Ai primi 10 completati



Info: Per scaricare devi usare un client come uTorrent o Transmission
AnnounceURL
http://tracker.tntvillage.scambioetico.org:2710/announce
Hash 2e32013d3cdbb344cb173c534eb7bf4090058e97
Peers seeds: 31 , leech: 10
Size 2.44 GB
Completato 59x
Aggiunto 13.05.19 - 13:05:52
Uploader   Sfrank77
Votazione (Voti: 0)


Condividi questo bittorrent:


html/blog:


bbcode/forum:




Aggiungi Commento


counter