Loading...
 * Dettagli Torrent   globale  | Commenti (0) 


- House IV - Presenze impalpabili (1992).720p.H264.italian.english.Ac3-MIRCrew -


Download via torrent:
Categoria bittorrent BDRip
Descrizione
visitate mircrew-releases


House IV  - Presenze impalpabili (1992).720p.H264.italian.english.Ac3-MIRCrew


NO FOUND ONLY ORIGINAL RELEASE

My release is always in double track audio italian and Original audio
for select it use VLC or dvd player home
not use wmp

House IV  - Presenze impalpabili (1992)

Quality MIRCrew on HD 720p da  1,5 gb










Titolo originale House IV
Lingua originale inglese
Paese di produzione Stati Uniti d'America
Anno 1992
Durata 94 min
Rapporto 1.85:1
Genere orrore, commedia
Regia Lewis Abernathy
Soggetto Geof Miller
Deirdre Higgins
Jim Wynorski
R.J. Robertson
Sceneggiatura Geof Miller
Deirdre Higgins



   William Katt: Roger Cobb
   Terri Treas: Kelly Cobb
   Scott Burkholder: Burke
   Denny Dillon: Verna Klump
   Melissa Clayton: Laurel Cobb
   Dabbs Greer: Papà
   Ned Romero: Ezra
   Ned Bellamy: Lee
   John Santucci: Charles
   Mark Gash: Mister Gross
   Paul Keith: idraulico
   Annie O'Donnell: infermiera



Dopo un terribile incidente d'auto che le ha ucciso il marito e ha lasciato sua figlia paralizzata, Kelly, nonostante il parere contrario del padre, decide di andare a vivere nella casa di campagna che il suo compagno amava tanto. Ben presto la giovane donna si troverà vittima di strani fenomeni che sembrano essere opera di uno spirito maligno



Roger Cobb (William Katt) is killed in a car accident. His family must move into the house that has haunted him for several years. Soon the family begins to experience scary and unexplained phenomena.

 





General
Unique ID                                : 130670148499954829768170131376399549160 (0x624E27BA18BBB9F948B67C49299182E
Complete name                            : House IV  - Presenze impalpabili (1992).720p.ita.eng.MIRCrewHouse IV  - Presenze impalpabili (1992).720p.ita.eng.MIRCrew.mkv
Format                                   : Matroska
Format version                           : Version 4 / Version 2
File size                                : 1.48 GiB
Duration                                 : 1h 35mn
Overall bit rate                         : 2 229 Kbps
Movie name                               : MIRCrew
Encoded date                             : UTC 2018-11-07 14:57:19
Writing application                      : mkvmerge v26.0.0 ('In The Game&#39 64-bit
Writing library                          : Lavf54.63.100
COMMENT                                  : mircrew-releases

Video
ID                                       : 1
Format                                   : AVC
Format/Info                              : Advanced Video Codec
Format profile                           : [email protected]
Format settings, CABAC                   : Yes
Format settings, ReFrames                : 2 frames
Codec ID                                 : V_MPEG4/ISO/AVC
Duration                                 : 1h 35mn
Bit rate                                 : 1 801 Kbps
Nominal bit rate                         : 1 900 Kbps
Width                                    : 1 280 pixels
Height                                   : 688 pixels
Display aspect ratio                     : 1.875
Frame rate mode                          : Variable
Frame rate                               : 24.000 fps
Color space                              : YUV
Chroma subsampling                       : 4:2:0
Bit depth                                : 8 bits
Scan type                                : Progressive
Bits/(Pixel*Frame)                       : 0.085
Stream size                              : 1.20 GiB (81%)
Title                                    : MIRCrew
Writing library                          : x264 core 130 r2273
Encoding settings                        : cabac=1 / ref=2 / deblock=1:0:0 / analyse=0x1:0x131 / me=hex / subme=7 / psy=1 / psy_rd=1.00:0.00 / mixed_ref=0 / me_range=16 / chroma_me=1 / trellis=1 / 8x8dct=0 / cqm=0 / deadzone=21,11 / fast_pskip=1 / chroma_qp_offset=-2 / threads=6 / lookahead_threads=1 / sliced_threads=0 / nr=0 / decimate=1 / interlaced=0 / bluray_compat=0 / constrained_intra=0 / bframes=3 / b_pyramid=0 / b_adapt=1 / b_bias=0 / direct=3 / weightb=1 / open_gop=0 / weightp=2 / keyint=240 / keyint_min=24 / scenecut=40 / intra_refresh=0 / rc_lookahead=40 / rc=abr / mbtree=1 / bitrate=1900 / ratetol=1.0 / qcomp=0.60 / qpmin=10 / qpmax=69 / qpstep=4 / vbv_maxrate=24000 / vbv_bufsize=24000 / nal_hrd=none / ip_ratio=1.40 / aq=1:1.00
Language                                 : Italian
Default                                  : Yes
Forced                                   : No
DURATION                                 : 01:35:11.584000000
NUMBER_OF_FRAMES                         : 137078
NUMBER_OF_BYTES                          : 1319987804
_STATISTICS_WRITING_APP                  : mkvmerge v26.0.0 ('In The Game&#39 64-bit
_STATISTICS_WRITING_DATE_UTC             : 2019-04-14 08:37:22
_STATISTICS_TAGS                         : BPS DURATION NUMBER_OF_FRAMES NUMBER_OF_BYTES

Audio #1
ID                                       : 2
Format                                   : AC-3
Format/Info                              : Audio Coding 3
Mode extension                           : CM (complete main)
Codec ID                                 : A_AC3
Duration                                 : 1h 35mn
Bit rate mode                            : Constant
Bit rate                                 : 192 Kbps
Channel(s)                               : 2 channels
Channel positions                        : Front: L R
Sampling rate                            : 48.0 KHz
Bit depth                                : 16 bits
Compression mode                         : Lossy
Delay relative to video                  : -5ms
Stream size                              : 131 MiB (9%)
Title                                    : Ita Ac3
Language                                 : Italian
Default                                  : Yes
Forced                                   : No
DURATION                                 : 01:33:48.320000000
NUMBER_OF_FRAMES                         : 175885
NUMBER_OF_BYTES                          : 135079680
_STATISTICS_WRITING_APP                  : mkvmerge v26.0.0 ('In The Game&#39 64-bit
_STATISTICS_WRITING_DATE_UTC             : 2019-04-14 08:37:22
_STATISTICS_TAGS                         : BPS DURATION NUMBER_OF_FRAMES NUMBER_OF_BYTES

Audio #2
ID                                       : 3
Format                                   : AC-3
Format/Info                              : Audio Coding 3
Mode extension                           : CM (complete main)
Codec ID                                 : A_AC3
Duration                                 : 1h 35mn
Bit rate mode                            : Constant
Bit rate                                 : 192 Kbps
Channel(s)                               : 2 channels
Channel positions                        : Front: L R
Sampling rate                            : 48.0 KHz
Bit depth                                : 16 bits
Compression mode                         : Lossy
Delay relative to video                  : -5ms
Stream size                              : 131 MiB (9%)
Title                                    : Eng Ac3 5.1
Language                                 : English
Default                                  : No
Forced                                   : No
DURATION                                 : 01:33:48.320000000
NUMBER_OF_FRAMES                         : 175885
NUMBER_OF_BYTES                          : 135079680
_STATISTICS_WRITING_APP                  : mkvmerge v26.0.0 ('In The Game&#39 64-bit
_STATISTICS_WRITING_DATE_UTC             : 2019-04-14 08:37:22
_STATISTICS_TAGS                         : BPS DURATION NUMBER_OF_FRAMES NUMBER_OF_BYTES



Info: Per scaricare devi usare un client come uTorrent o Transmission
AnnounceURL
udp://tracker.coppersurfer.tk:6969/announce
Hash e48170edb244b6a4d504ed66c3f7a1dedd2936cb
Peers seeds: 9 , leech: 2
Size 1.48 GB
Completato 284x
Aggiunto 11.05.19 - 17:05:14
Uploader   robbyrs
Votazione (Voti: 0)


Condividi questo bittorrent:


html/blog:


bbcode/forum:




Aggiungi Commento


counter