Loading...
 * Dettagli Torrent   globale  | Commenti (0) 


- Veneri Rosse (1956).H264.italian.english.Ac3.sub.ita-MIRCrew -


Download via torrent:
Categoria bittorrent BDRip
Descrizione
Se cercate tutte le releases della MIRCrew venite a trovarci su mircrew-releases
e tutte le releases nuove di pir8



Slightly Scarlet - Veneri Rosse (1956).H264.italian.english.Ac3.sub.ita-MIRCrew


NO FOUND ONLY ORIGINAL RELEASE

My release is always in double track audio italian and Original audio
for select it use VLC or dvd player home
not use wmp

Veneri Rosse - Slightly Scarlet (1956)









Titolo originale Slightly Scarlet
Lingua originale inglese
Paese di produzione Stati Uniti d'America
Anno 1956
Durata 99 min
Rapporto 2.00 : 1
Genere poliziesco, drammatico
Regia Allan Dwan
Nate Watt (assistente regista)
Soggetto James M. Cain
Sceneggiatura Robert Blees



   John Payne: Ben Grace
   Rhonda Fleming: June Lyons, segretaria di Jansen
   Arlene Dahl: Dorothy Lyons
   Kent Taylor: Frank Jansen
   Ted de Corsia: Solly Caspar (boss)
   Lance Fuller: Gauss
   Buddy Baer: Lenhardt
   Murray Alper: Hood
   Ellen Corby: Martha, cameriera di June Lyon
   Frank Gerstle: Dave Dietz, detective tenente / capo della polizia
   Roy Gordon: generale Norman B. Marlowe
   Myron Healey: Wilson
   Frank Jenks: barista
   William 'Bill' Phillips: Thug
   George E. Stone: Roos



Lotta tra un milionario e un gangster per ottenere la carica di sindaco di una città americana. Vincerà il primo, grazie all'aiuto di un ex complice del secondo.



An urban wheeler-dealer gets involved in organized crime, corrupt city politics and graft while falling in-love with the fiancée of the newly elected mayor.

 









General
Unique ID                                : 178911313936241051767554308930265132111 (0x869910D10E6EE8FE9AC48F39F3C3AC4F)
Complete name                            : Veneri Rosse - Slightly Scarlet (1956).h264.ita.eng.sub.ita-MIRCrewVeneri Rosse - Slightly Scarlet (1956).h264.ita.eng.sub.ita-MIRCrew.mkv
Format                                   : Matroska
Format version                           : Version 2
File size                                : 1.11 GiB
Duration                                 : 1h 34mn
Overall bit rate                         : 1 685 Kbps
Movie name                               : MIRCrew
Encoded date                             : UTC 2019-04-10T15:40:48Z
Writing application                      : mkvmerge v5.8.0 ('No Sleep / Pillow&#39 built on Sep  2 2012 15:37:04
Writing library                          : Lavf55.12.0

Video
ID                                       : 1
Format                                   : AVC
Format/Info                              : Advanced Video Codec
Format profile                           : [email protected]
Format settings, CABAC                   : Yes
Format settings, ReFrames                : 4 frames
Codec ID                                 : V_MPEG4/ISO/AVC
Duration                                 : 1h 34mn
Bit rate                                 : 1 300 Kbps
Width                                    : 720 pixels
Height                                   : 400 pixels
Display aspect ratio                     : 16:9
Frame rate                               : 25.000 fps
Color space                              : YUV
Chroma subsampling                       : 4:2:0
Bit depth                                : 8 bits
Scan type                                : Progressive
Bits/(Pixel*Frame)                       : 0.181
Stream size                              : 853 MiB (75%)
Title                                    : MIRCrew
Writing library                          : x264 core 142 r2479 dd79a61
Encoding settings                        : cabac=1 / ref=1 / deblock=1:-1:-1 / analyse=0x1:0x111 / me=hex / subme=2 / psy=1 / psy_rd=1.00:0.15 / mixed_ref=0 / me_range=16 / chroma_me=1 / trellis=0 / 8x8dct=0 / cqm=0 / deadzone=21,11 / fast_pskip=1 / chroma_qp_offset=0 / threads=9 / lookahead_threads=3 / sliced_threads=0 / nr=0 / decimate=1 / interlaced=0 / bluray_compat=0 / constrained_intra=0 / bframes=3 / b_pyramid=2 / b_adapt=1 / b_bias=0 / direct=1 / weightb=1 / open_gop=0 / weightp=1 / keyint=250 / keyint_min=25 / scenecut=40 / intra_refresh=0 / rc_lookahead=10 / rc=abr / mbtree=1 / bitrate=1300 / ratetol=1.0 / qcomp=0.60 / qpmin=0 / qpmax=69 / qpstep=4 / vbv_maxrate=50000 / vbv_bufsize=62500 / nal_hrd=none / filler=0 / ip_ratio=1.40 / aq=1:1.00
Language                                 : Italian
Default                                  : Yes
Forced                                   : No
Color primaries                          : BT.470-6 System B, BT.470-6 System G, BT.601-6 625, BT.1358 625, BT.1700 625 PAL, BT.1700 625 SECAM
Transfer characteristics                 : BT.709-5, BT.1361
Matrix coefficients                      : BT.601-6 525, BT.1358 525, BT.1700 NTSC, SMPTE 170M

Audio #1
ID                                       : 2
Format                                   : AC-3
Format/Info                              : Audio Coding 3
Mode extension                           : CM (complete main)
Codec ID                                 : A_AC3
Duration                                 : 1h 34mn
Bit rate mode                            : Constant
Bit rate                                 : 192 Kbps
Channel(s)                               : 2 channels
Channel positions                        : Front: L R
Sampling rate                            : 48.0 KHz
Bit depth                                : 16 bits
Compression mode                         : Lossy
Delay relative to video                  : -5ms
Stream size                              : 129 MiB (11%)
Title                                    : Ita Ac3
Language                                 : Italian
Default                                  : Yes
Forced                                   : No

Audio #2
ID                                       : 3
Format                                   : AC-3
Format/Info                              : Audio Coding 3
Mode extension                           : CM (complete main)
Codec ID                                 : A_AC3
Duration                                 : 1h 34mn
Bit rate mode                            : Constant
Bit rate                                 : 192 Kbps
Channel(s)                               : 1 channel
Channel positions                        : Front: C
Sampling rate                            : 48.0 KHz
Bit depth                                : 16 bits
Compression mode                         : Lossy
Delay relative to video                  : -5ms
Stream size                              : 129 MiB (11%)
Title                                    : Eng Ac3
Language                                 : English
Default                                  : No
Forced                                   : No

Menu
00:00:00.000                             : :Chapter 1
00:07:48.920                             : :Chapter 2
00:15:43.160                             : :Chapter 3
00:23:33.680                             : :Chapter 4
00:31:24.640                             : :Chapter 5
00:39:15.040                             : :Chapter 6
00:47:06.280                             : :Chapter 7
00:54:56.680                             : :Chapter 8
01:02:47.520                             : :Chapter 9
01:10:38.280                             : :Chapter 10
01:18:29.160                             : :Chapter 11
01:26:19.920                             : :Chapter 12


Info: Per scaricare devi usare un client come uTorrent o Transmission
AnnounceURL
udp://tracker.coppersurfer.tk:6969/announce
Hash 766830ff170d7c6640e603c7b784a85855656769
Peers seeds: 6 , leech: 2
Size 1.11 GB
Completato 217x
Aggiunto 14.04.19 - 17:04:24
Uploader   robbyrs
Votazione (Voti: 0)


Condividi questo bittorrent:


html/blog:


bbcode/forum:




Aggiungi Commento


counter