Loading...
 * Dettagli Torrent   globale  | Commenti (0) 


- The Crew - Braqueurs (2015).720p.H264.italian.french.Ac3-5.1.sub.ita-MIRCrew -


Download via torrent:
Categoria bittorrent BDRip
Descrizione
Se cercate tutte le releases della MIRCrew venite a trovarci su mircrew-releases
e tutte le releases nuove di pir8



The Crew - Braqueurs (2015).720p.H264.italian.french.Ac3-5.1.sub.ita-MIRCrew


NO FOUND ONLY ORIGINAL RELEASE

My release is always in double track audio italian and Original audio
for select it use VLC or dvd player home
not use wmp

Braqueurs - The Crew

(2015)

Quality MIRCrew on HD 720p da  1,6 gb





[url=][/url]





titolo internazionale: The Crew
titolo originale: Braqueurs
paese: Francia, Belgio
anno: 2016
genere: fiction
regia: Julien Leclercq
data di uscita: FR 04/05/2016
sceneggiatura: Julien Leclercq, Simon Moutaïrou, Jérôme Pierrat



Sami Bouajila, Guillaume Gouix, Youssef Hajdi, David Saracino, Redouane Behache, Kahina Carina, Alice de Lencquesaing, Baya Belal



Rapinatore armato esperto e qualificato, Yanis è un leader intelligente e meticoloso la cui identità continua a sfuggire alla polizia. Dirottare camion blindati con la sua squadra - Frank, Nasser e Amine - è la sua specialità.



Work-life balance breaks down for Paris's most gifted armed robbers when a grave mistake forces them to work for a crime boss in a high-stakes heist.  





General
Unique ID                                : 206862745028078173805444342828441780951 (0x9BA050C4CA267BE06316F1683D57C2D7)
Complete name                            : Braqueurs - The Crew (2015).720p.ita.fre.sub.ita-MIRCrewBraqueurs - The Crew (2015).720p.ita.fre.sub.ita-MIRCrew.mkv
Format                                   : Matroska
Format version                           : Version 4 / Version 2
File size                                : 1.56 GiB
Duration                                 : 1h 20mn
Overall bit rate                         : 2 766 Kbps
Movie name                               : MIRCrew
Encoded date                             : UTC 2019-03-04 15:46:45
Writing application                      : mkvmerge v26.0.0 ('In The Game&#39 64-bit
Writing library                          : Lavf54.63.100
COMMENT                                  : mircrew-releases

Video
ID                                       : 1
Format                                   : AVC
Format/Info                              : Advanced Video Codec
Format profile                           : [email protected]
Format settings, CABAC                   : Yes
Format settings, ReFrames                : 2 frames
Codec ID                                 : V_MPEG4/ISO/AVC
Duration                                 : 1h 20mn
Bit rate                                 : 1 900 Kbps
Width                                    : 1 280 pixels
Height                                   : 528 pixels
Display aspect ratio                     : 2.40:1
Original display aspect ratio            : 2.40:1
Frame rate mode                          : Variable
Frame rate                               : 24.000 fps
Color space                              : YUV
Chroma subsampling                       : 4:2:0
Bit depth                                : 8 bits
Scan type                                : Progressive
Bits/(Pixel*Frame)                       : 0.117
Stream size                              : 1.02 GiB (66%)
Title                                    : MIRCrew
Writing library                          : x264 core 130 r2273
Encoding settings                        : cabac=1 / ref=2 / deblock=1:0:0 / analyse=0x1:0x131 / me=hex / subme=7 / psy=1 / psy_rd=1.00:0.00 / mixed_ref=0 / me_range=16 / chroma_me=1 / trellis=1 / 8x8dct=0 / cqm=0 / deadzone=21,11 / fast_pskip=1 / chroma_qp_offset=-2 / threads=6 / lookahead_threads=1 / sliced_threads=0 / nr=0 / decimate=1 / interlaced=0 / bluray_compat=0 / constrained_intra=0 / bframes=3 / b_pyramid=0 / b_adapt=1 / b_bias=0 / direct=3 / weightb=1 / open_gop=0 / weightp=2 / keyint=240 / keyint_min=24 / scenecut=40 / intra_refresh=0 / rc_lookahead=40 / rc=abr / mbtree=1 / bitrate=1900 / ratetol=1.0 / qcomp=0.60 / qpmin=10 / qpmax=69 / qpstep=4 / vbv_maxrate=24000 / vbv_bufsize=24000 / nal_hrd=none / ip_ratio=1.40 / aq=1:1.00
Language                                 : Italian
Default                                  : Yes
Forced                                   : No
DURATION                                 : 01:20:48.459000000
NUMBER_OF_FRAMES                         : 116363
NUMBER_OF_BYTES                          : 1131919203
_STATISTICS_WRITING_APP                  : mkvmerge v26.0.0 ('In The Game&#39 64-bit
_STATISTICS_WRITING_DATE_UTC             : 2019-04-04 19:00:39
_STATISTICS_TAGS                         : BPS DURATION NUMBER_OF_FRAMES NUMBER_OF_BYTES

Audio #1
ID                                       : 2
Format                                   : AC-3
Format/Info                              : Audio Coding 3
Mode extension                           : CM (complete main)
Codec ID                                 : A_AC3
Duration                                 : 1h 20mn
Bit rate mode                            : Constant
Bit rate                                 : 448 Kbps
Channel(s)                               : 6 channels
Channel positions                        : Front: L C R, Side: L R, LFE
Sampling rate                            : 48.0 KHz
Bit depth                                : 16 bits
Compression mode                         : Lossy
Delay relative to video                  : -5ms
Stream size                              : 259 MiB (16%)
Title                                    : Ita Ac3
Language                                 : Italian
Default                                  : Yes
Forced                                   : No
DURATION                                 : 01:20:48.480000000
NUMBER_OF_FRAMES                         : 151515
NUMBER_OF_BYTES                          : 271514880
_STATISTICS_WRITING_APP                  : mkvmerge v26.0.0 ('In The Game&#39 64-bit
_STATISTICS_WRITING_DATE_UTC             : 2019-04-04 19:00:39
_STATISTICS_TAGS                         : BPS DURATION NUMBER_OF_FRAMES NUMBER_OF_BYTES

Audio #2
ID                                       : 3
Format                                   : AC-3
Format/Info                              : Audio Coding 3
Mode extension                           : CM (complete main)
Codec ID                                 : A_AC3
Duration                                 : 1h 20mn
Bit rate mode                            : Constant
Bit rate                                 : 448 Kbps
Channel(s)                               : 6 channels
Channel positions                        : Front: L C R, Side: L R, LFE
Sampling rate                            : 48.0 KHz
Bit depth                                : 16 bits
Compression mode                         : Lossy
Delay relative to video                  : -5ms
Stream size                              : 259 MiB (16%)
Title                                    : Fre Ac3
Language                                 : French
Default                                  : No
Forced                                   : No
DURATION                                 : 01:20:48.448000000
NUMBER_OF_FRAMES                         : 151514
NUMBER_OF_BYTES                          : 271513088
_STATISTICS_WRITING_APP                  : mkvmerge v26.0.0 ('In The Game&#39 64-bit
_STATISTICS_WRITING_DATE_UTC             : 2019-04-04 19:00:39
_STATISTICS_TAGS                         : BPS DURATION NUMBER_OF_FRAMES NUMBER_OF_BYTES


Info: Per scaricare devi usare un client come uTorrent o Transmission
AnnounceURL
udp://tracker.coppersurfer.tk:6969/announce
Hash 2ac4dc11dcd7ae62b1a7c955ec1aae433f5d04c6
Peers seeds: 13 , leech: 4
Size 1.56 GB
Completato 772x
Aggiunto 14.04.19 - 16:04:54
Uploader   robbyrs
Votazione (Voti: 0)


Condividi questo bittorrent:


html/blog:


bbcode/forum:




Aggiungi Commento


counter