Loading...
 * Dettagli Torrent   globale  | Commenti (0) 


- Ben Is Back (2018).720p.H264.italian.english.Ac3-5.1.sub.ita.eng-MIRCrew -


Download via torrent:
Categoria bittorrent BDRip
Descrizione
visitate mircrew-releases


Ben Is Back 2018.720p.H264.italian.english.Ac3-5.1.sub.ita.eng-MIRCrew


NO FOUND ONLY ORIGINAL RELEASE

My release is always in double track audio italian and Original audio
for select it use VLC or dvd player home
not use wmp


Ben Is Back 2018

Quality MIRCrew on HD 720p da 2,0 gb











GENERE: Drammatico
ANNO: 2018
REGIA: Peter Hedges
PAESE: USA
DURATA: 103 Min



Julia Roberts, Lucas Hedges, Kathryn Newton, Courtney B. Vance, Melissa Van Der Schyff, Alexandra Park, Faith Logan, Tim Guinee, Marquise Vilson, Michael Esper



Il giorno di Natale decide di uscire dalla comunità per passare le feste in famiglia. La madre Holly (Julia Roberts) sorpresa lo accoglie a braccia aperte, ma capisce presto che qualcosa non va. Durante le 24 ore successive Holly farà tutto ciò che è in suo potere per salvare il figlio ed evitare il collasso della propria famiglia.



A drug addicted teenage boy shows up unexpectedly at his family's home on Christmas Eve.





General
Unique ID                                : 108543530945551366049324845067024072384 (0x51A8B9413DD1B1B641BBB65DCCE5FEC0)
Complete name                            : Ben Is Back (201 MIRCrewBen Is Back (201.720p.h264.ita.eng.sub.ita.eng-MIRCrew.mkv
Format                                   : Matroska
Format version                           : Version 2
File size                                : 1.99 GiB
Duration                                 : 1h 43mn
Overall bit rate                         : 2 756 Kbps
Movie name                               : MIRCrew
Encoded date                             : UTC 2019-04-03 10:05:02
Writing application                      : Lavf54.63.100
Writing library                          : Lavf54.63.100

Video
ID                                       : 1
Format                                   : AVC
Format/Info                              : Advanced Video Codec
Format profile                           : [email protected]
Format settings, CABAC                   : Yes
Format settings, ReFrames                : 2 frames
Codec ID                                 : V_MPEG4/ISO/AVC
Duration                                 : 1h 43mn
Bit rate                                 : 1 805 Kbps
Nominal bit rate                         : 1 900 Kbps
Width                                    : 1 280 pixels
Height                                   : 528 pixels
Display aspect ratio                     : 2.40:1
Frame rate mode                          : Variable
Frame rate                               : 24.000 fps
Color space                              : YUV
Chroma subsampling                       : 4:2:0
Bit depth                                : 8 bits
Scan type                                : Progressive
Bits/(Pixel*Frame)                       : 0.111
Stream size                              : 1.30 GiB (66%)
Writing library                          : x264 core 130 r2273
Encoding settings                        : cabac=1 / ref=2 / deblock=1:0:0 / analyse=0x1:0x131 / me=hex / subme=7 / psy=1 / psy_rd=1.00:0.00 / mixed_ref=0 / me_range=16 / chroma_me=1 / trellis=1 / 8x8dct=0 / cqm=0 / deadzone=21,11 / fast_pskip=1 / chroma_qp_offset=-2 / threads=9 / lookahead_threads=1 / sliced_threads=0 / nr=0 / decimate=1 / interlaced=0 / bluray_compat=0 / constrained_intra=0 / bframes=3 / b_pyramid=0 / b_adapt=1 / b_bias=0 / direct=3 / weightb=1 / open_gop=0 / weightp=2 / keyint=240 / keyint_min=24 / scenecut=40 / intra_refresh=0 / rc_lookahead=40 / rc=abr / mbtree=1 / bitrate=1900 / ratetol=1.0 / qcomp=0.60 / qpmin=10 / qpmax=69 / qpstep=4 / vbv_maxrate=24000 / vbv_bufsize=24000 / nal_hrd=none / ip_ratio=1.40 / aq=1:1.00
Language                                 : Italian
Default                                  : Yes
Forced                                   : No

Audio #1
ID                                       : 2
Format                                   : AC-3
Format/Info                              : Audio Coding 3
Mode extension                           : CM (complete main)
Codec ID                                 : A_AC3
Duration                                 : 1h 43mn
Bit rate mode                            : Constant
Bit rate                                 : 448 Kbps
Channel(s)                               : 6 channels
Channel positions                        : Front: L C R, Side: L R, LFE
Sampling rate                            : 48.0 KHz
Bit depth                                : 16 bits
Compression mode                         : Lossy
Delay relative to video                  : 1mn 5s
Stream size                              : 331 MiB (16%)
Default                                  : No
Forced                                   : No

Audio #2
ID                                       : 3
Format                                   : AC-3
Format/Info                              : Audio Coding 3
Mode extension                           : CM (complete main)
Codec ID                                 : A_AC3
Duration                                 : 1h 43mn
Bit rate mode                            : Constant
Bit rate                                 : 448 Kbps
Channel(s)                               : 6 channels
Channel positions                        : Front: L C R, Side: L R, LFE
Sampling rate                            : 48.0 KHz
Bit depth                                : 16 bits
Compression mode                         : Lossy
Delay relative to video                  : 1mn 5s
Stream size                              : 331 MiB (16%)
Title                                    : AC3 5.1
Language                                 : English
Default                                  : No
Forced                                   : No



Info: Per scaricare devi usare un client come uTorrent o Transmission
AnnounceURL
udp://tracker.coppersurfer.tk:6969/announce
Hash d2d9fd95703745baedb17b81447959aac3ed4a3e
Peers seeds: 122 , leech: 37
Size 1.99 GB
Completato 1434x
Aggiunto 14.04.19 - 15:04:36
Uploader   robbyrs
Votazione (Voti: 0)


Condividi questo bittorrent:


html/blog:


bbcode/forum:




Aggiungi Commento


counter