Loading...
 * Dettagli Torrent   globale  | Commenti (0) 


- Adamo ed Evelina (1949).H264.italian.english.Ac3.sub.ita-MIRCrew -


Download via torrent:
Categoria bittorrent BDRip
Descrizione
Se cercate tutte le releases della MIRCrew venite a trovarci su mircrew-releases


Adam and Evelyne - Adamo ed Evelina (1949).H264.italian.english.Ac3.sub.ita-MIRCrew


NO FOUND ONLY ORIGINAL RELEASE

My release is always in double track audio italian and Original audio
for select it use VLC or dvd player home
not use wmp

Adamo ed Evelina

Adam and Evelyne

(1949)










Titolo originale Adam and Evelyne
Paese di produzione Gran Bretagna
Anno 1949
Durata 70 min
Dati tecnici B/N
Genere commedia
Regia Harold French
Soggetto Noel Langley
Sceneggiatura George Barraud, Nicholas Phipps e Lesley Storm



   Stewart Granger: Adamo Black (Adam)
   Jean Simmons: Evelina Wallace (Evelyne)
   Edwin Styles: Bill Murray
   Helen Cherry: Mara Hannon (Moira)
   Raymond Young: Rodolfo Black (Roddy)
   Geoffrey Denton: ispettore Collins
   Beatrice Varley: signora Marta (Mrs. Parker)
   Joan Swinstead: Paola (Molly)
   Fred Johnson: Chris Kirby
   Wilfrid Hyde-White: colonnello Bradley
   Peter Reynolds: David
   Brenda Hogan: Cristina (Christine)
   John Forrest: Gavino (Tony)



La storia è incentrata su una storia d'amore quasi proibita fra Adamo e la figlia di un suo caro amico (Evelina) che viene adottata da lui.



The father of a girl in an orphanage has been writing his daughter, who doesn't remember him, tales of his success in business. Actually, he is impersonating a friend, a handsome gambler. When the father dies, the gambler takes to girl from the orphanage and tells her the truth..

 









General
Unique ID                                : 177615587751972231661201895206350951237 (0x859F84955DBA6E28A8C3522C93FB1345)
Complete name                            : Adamo ed Evelina - Adam and Evelyne (1949).h264.ita.eng.sub.ita-MIRCrewAdamo ed Evelina - Adam and Evelyne (1949).h264.ita.eng.sub.ita-MIRCrew.mkv
Format                                   : Matroska
Format version                           : Version 2
File size                                : 1.04 GiB
Duration                                 : 1h 28mn
Overall bit rate                         : 1 683 Kbps
Movie name                               : MIRCrew
Encoded date                             : UTC 2019-04-09T21:17:07Z
Writing application                      : mkvmerge v5.8.0 ('No Sleep / Pillow&#39 built on Sep  2 2012 15:37:04
Writing library                          : Lavf55.12.0

Video
ID                                       : 1
Format                                   : AVC
Format/Info                              : Advanced Video Codec
Format profile                           : [email protected]
Format settings, CABAC                   : Yes
Format settings, ReFrames                : 4 frames
Codec ID                                 : V_MPEG4/ISO/AVC
Duration                                 : 1h 28mn
Bit rate                                 : 1 300 Kbps
Width                                    : 720 pixels
Height                                   : 558 pixels
Display aspect ratio                     : 1.290
Frame rate                               : 25.000 fps
Color space                              : YUV
Chroma subsampling                       : 4:2:0
Bit depth                                : 8 bits
Scan type                                : Progressive
Bits/(Pixel*Frame)                       : 0.129
Stream size                              : 803 MiB (75%)
Title                                    : MIRCrew
Writing library                          : x264 core 142 r2479 dd79a61
Encoding settings                        : cabac=1 / ref=1 / deblock=1:-1:-1 / analyse=0x1:0x111 / me=hex / subme=2 / psy=1 / psy_rd=1.00:0.15 / mixed_ref=0 / me_range=16 / chroma_me=1 / trellis=0 / 8x8dct=0 / cqm=0 / deadzone=21,11 / fast_pskip=1 / chroma_qp_offset=0 / threads=9 / lookahead_threads=3 / sliced_threads=0 / nr=0 / decimate=1 / interlaced=0 / bluray_compat=0 / constrained_intra=0 / bframes=3 / b_pyramid=2 / b_adapt=1 / b_bias=0 / direct=1 / weightb=1 / open_gop=0 / weightp=1 / keyint=250 / keyint_min=25 / scenecut=40 / intra_refresh=0 / rc_lookahead=10 / rc=abr / mbtree=1 / bitrate=1300 / ratetol=1.0 / qcomp=0.60 / qpmin=0 / qpmax=69 / qpstep=4 / vbv_maxrate=50000 / vbv_bufsize=62500 / nal_hrd=none / filler=0 / ip_ratio=1.40 / aq=1:1.00
Language                                 : Italian
Default                                  : Yes
Forced                                   : No
Color primaries                          : BT.470-6 System B, BT.470-6 System G, BT.601-6 625, BT.1358 625, BT.1700 625 PAL, BT.1700 625 SECAM
Transfer characteristics                 : BT.709-5, BT.1361
Matrix coefficients                      : BT.601-6 525, BT.1358 525, BT.1700 NTSC, SMPTE 170M

Audio #1
ID                                       : 2
Format                                   : AC-3
Format/Info                              : Audio Coding 3
Mode extension                           : CM (complete main)
Codec ID                                 : A_AC3
Duration                                 : 1h 28mn
Bit rate mode                            : Constant
Bit rate                                 : 192 Kbps
Channel(s)                               : 2 channels
Channel positions                        : Front: L R
Sampling rate                            : 48.0 KHz
Bit depth                                : 16 bits
Compression mode                         : Lossy
Delay relative to video                  : -5ms
Stream size                              : 122 MiB (11%)
Title                                    : Ita Ac3
Language                                 : Italian
Default                                  : Yes
Forced                                   : No

Audio #2
ID                                       : 3
Format                                   : AC-3
Format/Info                              : Audio Coding 3
Mode extension                           : CM (complete main)
Codec ID                                 : A_AC3
Duration                                 : 1h 28mn
Bit rate mode                            : Constant
Bit rate                                 : 192 Kbps
Channel(s)                               : 2 channels
Channel positions                        : Front: L R
Sampling rate                            : 48.0 KHz
Bit depth                                : 16 bits
Compression mode                         : Lossy
Delay relative to video                  : -5ms
Stream size                              : 122 MiB (11%)
Title                                    : Eng Ac3
Language                                 : English
Default                                  : No
Forced                                   : No

Menu
00:00:00.000                             : :Chapter 1
00:04:20.000                             : :Chapter 2
00:09:34.760                             : :Chapter 3
00:17:21.160                             : :Chapter 4
00:22:33.280                             : :Chapter 5
00:27:13.600                             : :Chapter 6
00:31:19.240                             : :Chapter 7
00:38:07.440                             : :Chapter 8
00:42:59.240                             : :Chapter 9
00:50:16.160                             : :Chapter 10
00:55:00.080                             : :Chapter 11
01:00:46.920                             : :Chapter 12
01:05:25.960                             : :Chapter 13
01:10:54.760                             : :Chapter 14
01:16:19.200                             : :Chapter 15
01:21:46.920                             : :Chapter 16


Info: Per scaricare devi usare un client come uTorrent o Transmission
AnnounceURL
udp://tracker.coppersurfer.tk:6969/announce
Hash c272c2d945ee0044b4fc36f986ee3bd584e99aa6
Peers seeds: 7 , leech: 1
Size 1.04 GB
Completato 181x
Aggiunto 11.04.19 - 19:04:25
Uploader   robbyrs
Votazione (Voti: 0)


Condividi questo bittorrent:


html/blog:


bbcode/forum:




Aggiungi Commento


counter