Loading...
 * Dettagli Torrent   globale  | Commenti (0) 


- The Butterfly Effect - Directors Cut (2004).720p.H264.italian.english.Ac3-5.1.sub.ita.eng-MIRCrew -


Download via torrent:
Categoria bittorrent BDRip
Descrizione
visitate mircrew-releases

The Butterfly Effect - Director's Cut (2004).720p.H264.italian.english.Ac3-5.1.sub.ita.eng-MIRCrew


NO FOUND ONLY ORIGINAL RELEASE

My release is always in double track audio italian and Original audio
for select it use VLC or dvd player home
not use wmp

The Butterfly Effect

Director's Cut (2004)


Quality MIRCrew on HD 720p da  2,3 gb










Paese di produzione Stati Uniti d'America
Anno 2004
Durata 113 min, 120 min (director's cut)
Rapporto 1,85 : 1
Genere fantascienza, thriller
Regia Eric Bress, J. Mackye Gruber
Sceneggiatura Eric Bress, J. Mackye Gruber



   Ashton Kutcher: Evan Treborn
   Amy Smart: Kayleigh Miller
   Melora Walters: Andrea Treborn
   Elden Henson: Lenny Kagan
   William Lee Scott: Tommy Miller
   Eric Stoltz: George Miller
   Ethan Suplee: Tumper
   Callum Keith Rennie: Jason Treborn
   John Patrick Amedori: Evan a 13 anni
   Logan Lerman: Evan a 7 anni
   Irene Gorovaia: Kayleigh a 13 anni
   Sarah Widdows: Kayleigh a 7 anni
   Jesse James: Tommy a 13 anni
   Cameron Bright: Tommy a 7 anni
   Kevin Schmidt: Lenny a 13 anni
   Jake Kaese: Lenny a 7 anni



A sette anni Evan comincia a manifestare le sue prime amnesie. La madre decide di sottoporlo a terapia e il dottore le consiglia di spingere il piccolo a scrivere dei diari su cui annotare tutto ciò che fa. Il terapista, in seguito, ipotizza che i problemi del bambino derivino dalla mancanza del padre, rinchiuso in un manicomio



Evan Treborn suffers blackouts during significant events of his life. As he grows up, he finds a way to remember these lost memories and a supernatural way to alter his life by reading his journal.





General
Unique ID                                : 246375985046472507722592496917119986227 (0xB95A49E96A68B72D34F6E6C55A5B6A33)
Complete name                            : The Butterfly Effect - Director's Cut (2004).720p.h264.ita.eng.sub.ita.eng-MIRCrewThe Butterfly Effect - Director's Cut (2004).720p.h264.ita.eng.sub.ita.eng-MIRCrew.mkv
Format                                   : Matroska
Format version                           : Version 4 / Version 2
File size                                : 2.32 GiB
Duration                                 : 1h 59mn
Overall bit rate                         : 2 775 Kbps
Movie name                               : MIRCrew
Encoded date                             : UTC 2019-03-12T21:26:59Z
Writing application                      : mkvmerge v26.0.0 ('In The Game&#39 64-bit
Writing library                          : Lavf55.12.0

Video
ID                                       : 1
Format                                   : AVC
Format/Info                              : Advanced Video Codec
Format profile                           : [email protected]
Format settings, CABAC                   : Yes
Format settings, ReFrames                : 4 frames
Codec ID                                 : V_MPEG4/ISO/AVC
Duration                                 : 1h 59mn
Bit rate                                 : 1 900 Kbps
Width                                    : 1 280 pixels
Height                                   : 720 pixels
Display aspect ratio                     : 16:9
Frame rate                               : 23.976 fps
Color space                              : YUV
Chroma subsampling                       : 4:2:0
Bit depth                                : 8 bits
Scan type                                : Progressive
Bits/(Pixel*Frame)                       : 0.086
Stream size                              : 1.52 GiB (66%)
Title                                    : MIRCrew
Writing library                          : x264 core 142 r2479 dd79a61
Encoding settings                        : cabac=1 / ref=1 / deblock=1:-1:-1 / analyse=0x1:0x111 / me=hex / subme=2 / psy=1 / psy_rd=1.00:0.15 / mixed_ref=0 / me_range=16 / chroma_me=1 / trellis=0 / 8x8dct=0 / cqm=0 / deadzone=21,11 / fast_pskip=1 / chroma_qp_offset=0 / threads=6 / lookahead_threads=2 / sliced_threads=0 / nr=0 / decimate=1 / interlaced=0 / bluray_compat=0 / constrained_intra=0 / bframes=3 / b_pyramid=2 / b_adapt=1 / b_bias=0 / direct=1 / weightb=1 / open_gop=0 / weightp=1 / keyint=240 / keyint_min=24 / scenecut=40 / intra_refresh=0 / rc_lookahead=10 / rc=abr / mbtree=1 / bitrate=1900 / ratetol=1.0 / qcomp=0.60 / qpmin=0 / qpmax=69 / qpstep=4 / vbv_maxrate=50000 / vbv_bufsize=62500 / nal_hrd=none / filler=0 / ip_ratio=1.40 / aq=1:1.00
Language                                 : Italian
Default                                  : Yes
Forced                                   : No
DURATION                                 : 01:59:37.129000000
NUMBER_OF_FRAMES                         : 172079
NUMBER_OF_BYTES                          : 1683527410
_STATISTICS_WRITING_APP                  : mkvmerge v26.0.0 ('In The Game&#39 64-bit
_STATISTICS_WRITING_DATE_UTC             : 2019-03-15 18:23:26
_STATISTICS_TAGS                         : BPS DURATION NUMBER_OF_FRAMES NUMBER_OF_BYTES
Color primaries                          : BT.709-5, BT.1361, IEC 61966-2-4, SMPTE RP177
Transfer characteristics                 : BT.709-5, BT.1361
Matrix coefficients                      : BT.709-5, BT.1361, IEC 61966-2-4 709, SMPTE RP177

Audio #1
ID                                       : 2
Format                                   : AC-3
Format/Info                              : Audio Coding 3
Mode extension                           : CM (complete main)
Codec ID                                 : A_AC3
Duration                                 : 1h 59mn
Bit rate mode                            : Constant
Bit rate                                 : 448 Kbps
Channel(s)                               : 6 channels
Channel positions                        : Front: L C R, Side: L R, LFE
Sampling rate                            : 48.0 KHz
Bit depth                                : 16 bits
Compression mode                         : Lossy
Delay relative to video                  : -5ms
Stream size                              : 383 MiB (16%)
Title                                    : Ita Ac3 5.1
Language                                 : Italian
Default                                  : Yes
Forced                                   : No
DURATION                                 : 01:59:37.056000000
NUMBER_OF_FRAMES                         : 224283
NUMBER_OF_BYTES                          : 401915136
_STATISTICS_WRITING_APP                  : mkvmerge v26.0.0 ('In The Game&#39 64-bit
_STATISTICS_WRITING_DATE_UTC             : 2019-03-15 18:23:26
_STATISTICS_TAGS                         : BPS DURATION NUMBER_OF_FRAMES NUMBER_OF_BYTES

Audio #2
ID                                       : 3
Format                                   : AC-3
Format/Info                              : Audio Coding 3
Mode extension                           : CM (complete main)
Codec ID                                 : A_AC3
Duration                                 : 1h 59mn
Bit rate mode                            : Constant
Bit rate                                 : 448 Kbps
Channel(s)                               : 6 channels
Channel positions                        : Front: L C R, Side: L R, LFE
Sampling rate                            : 48.0 KHz
Bit depth                                : 16 bits
Compression mode                         : Lossy
Delay relative to video                  : -5ms
Stream size                              : 383 MiB (16%)
Title                                    : Eng Ac3 5.1
Language                                 : English
Default                                  : No
Forced                                   : No
DURATION                                 : 01:59:37.056000000
NUMBER_OF_FRAMES                         : 224283
NUMBER_OF_BYTES                          : 401915136
_STATISTICS_WRITING_APP                  : mkvmerge v26.0.0 ('In The Game&#39 64-bit
_STATISTICS_WRITING_DATE_UTC             : 2019-03-15 18:23:26
_STATISTICS_TAGS                         : BPS DURATION NUMBER_OF_FRAMES NUMBER_OF_BYTES

Menu
00:00:00.000                             : :Chapter 1
00:06:29.305                             : :Chapter 2
00:11:17.969                             : :Chapter 3
00:16:29.488                             : :Chapter 4
00:22:48.867                             : :Chapter 5
00:26:50.192                             : :Chapter 6
00:31:20.795                             : :Chapter 7
00:38:53.831                             : :Chapter 8
00:44:16.320                             : :Chapter 9
00:51:03.310                             : :Chapter 10
00:54:35.772                             : :Chapter 11
01:02:38.838                             : :Chapter 12
01:09:47.516                             : :Chapter 13
01:16:08.480                             : :Chapter 14
01:20:27.322                             : :Chapter 15
01:27:33.248                             : :Chapter 16
01:34:01.636                             : :Chapter 17
01:42:04.243                             : :Chapter 18
01:47:13.135                             : :Chapter 19
01:51:03.657                             : :Chapter 20
01:53:56.037                             : :Chapter 21



Info: Per scaricare devi usare un client come uTorrent o Transmission
AnnounceURL
udp://tracker.coppersurfer.tk:6969/announce
Hash 623036c191989af7c7a975f08f3a1a648138c899
Peers seeds: 28 , leech: 1
Size 2.32 GB
Completato 764x
Aggiunto 04.04.19 - 17:04:13
Uploader   robbyrs
Votazione (Voti: 0)


Condividi questo bittorrent:


html/blog:


bbcode/forum:




Aggiungi Commento


counter