Loading...
 * Dettagli Torrent   globale  | Commenti (0) 


- Bongo e i tre avventurieri (1947).720p.H264.italian.english.Ac3-5.1-sub.ita-MIRCrew -


Download via torrent:
Categoria bittorrent BDRip
Descrizione
Visitate mircrew-releases

Fun & Fancy Free - Bongo e i tre avventurieri (1947).720p.H264.italian.english.Ac3-5.1-sub.ita-MIRCrew


NO FOUND ONLY ORIGINAL RELEASE

My release is always in double track audio italian and Original audio
for select it use VLC or dvd player home
not use wmp

Bongo e i tre avventurieri

Fun & Fancy Free

(1947)


Quality MIRCrew on HD 720p da  1,0 gb









Titolo originale Fun & Fancy Free
Lingua originale inglese
Paese di produzione USA
Anno 1947
Durata 70 min
Rapporto 1.37:1
Genere animazione, musicale, fantastico
Regia Jack Kinney, Bill Roberts, Hamilton Luske, William Morgan
Soggetto Sinclair Lewis



*******************************



Questo film presenta due segmenti: Bongo e Topolino e il fagiolo magico. Il Grillo Parlante appare all'interno di un'enorme pianta in una grande casa, esplorandola e cantando "Non ci si deve mai crucciar" fino a quando gli capita di inciampare su una bambola, un orsacchiotto, un giradischi e alcuni dischi, e ne riproduce uno in cui si narra la storia di Bongo.



Jiminy Cricket hosts two Disney animated shorts: "Bongo," about a circus bear escaping to the wild, and "Mickey and the Beanstalk," a take on the famous fairy tale.





General
Unique ID                                : 146743544742642598273816603114648289058 (0x6E65C758A805BA7122CF0964887ABF22)
Complete name                            : Bongo e i tre avventurieri (1947).720p.ita.eng.sub.ita.eng-MIRCrewBongo e i tre avventurieri (1947).720p.ita.eng.sub.ita.eng-MIRCrew.mkv
Format                                   : Matroska
Format version                           : Version 4 / Version 2
File size                                : 1.04 GiB
Duration                                 : 1h 12mn
Overall bit rate                         : 2 040 Kbps
Movie name                               : MIRCrew
Encoded date                             : UTC 2019-02-23T16:58:31Z
Writing application                      : mkvmerge v26.0.0 ('In The Game&#39 64-bit
Writing library                          : Lavf55.12.0

Video
ID                                       : 1
Format                                   : AVC
Format/Info                              : Advanced Video Codec
Format profile                           : [email protected]
Format settings, CABAC                   : Yes
Format settings, ReFrames                : 4 frames
Codec ID                                 : V_MPEG4/ISO/AVC
Duration                                 : 1h 12mn
Bit rate                                 : 1 280 Kbps
Width                                    : 720 pixels
Height                                   : 544 pixels
Display aspect ratio                     : 4:3
Frame rate                               : 23.976 fps
Color space                              : YUV
Chroma subsampling                       : 4:2:0
Bit depth                                : 8 bits
Scan type                                : Progressive
Bits/(Pixel*Frame)                       : 0.136
Stream size                              : 642 MiB (60%)
Title                                    : MIRCrew
Writing library                          : x264 core 142 r2479 dd79a61
Encoding settings                        : cabac=1 / ref=1 / deblock=1:0:0 / analyse=0x1:0x111 / me=hex / subme=2 / psy=1 / psy_rd=1.00:0.00 / mixed_ref=0 / me_range=16 / chroma_me=1 / trellis=0 / 8x8dct=0 / cqm=0 / deadzone=21,11 / fast_pskip=1 / chroma_qp_offset=0 / threads=6 / lookahead_threads=2 / sliced_threads=0 / nr=0 / decimate=1 / interlaced=0 / bluray_compat=0 / constrained_intra=0 / bframes=3 / b_pyramid=2 / b_adapt=1 / b_bias=0 / direct=1 / weightb=1 / open_gop=0 / weightp=1 / keyint=240 / keyint_min=24 / scenecut=40 / intra_refresh=0 / rc_lookahead=10 / rc=abr / mbtree=1 / bitrate=1280 / ratetol=1.0 / qcomp=0.60 / qpmin=0 / qpmax=69 / qpstep=4 / vbv_maxrate=50000 / vbv_bufsize=62500 / nal_hrd=none / filler=0 / ip_ratio=1.40 / aq=1:1.00
Language                                 : Italian
Default                                  : Yes
Forced                                   : No
DURATION                                 : 01:12:48.406000000
NUMBER_OF_FRAMES                         : 104737
NUMBER_OF_BYTES                          : 693772486
_STATISTICS_WRITING_APP                  : mkvmerge v26.0.0 ('In The Game&#39 64-bit
_STATISTICS_WRITING_DATE_UTC             : 2019-02-24 12:55:09
_STATISTICS_TAGS                         : BPS DURATION NUMBER_OF_FRAMES NUMBER_OF_BYTES
Color primaries                          : BT.709-5, BT.1361, IEC 61966-2-4, SMPTE RP177
Transfer characteristics                 : BT.709-5, BT.1361
Matrix coefficients                      : BT.709-5, BT.1361, IEC 61966-2-4 709, SMPTE RP177

Audio #1
ID                                       : 2
Format                                   : AC-3
Format/Info                              : Audio Coding 3
Mode extension                           : CM (complete main)
Codec ID                                 : A_AC3
Duration                                 : 1h 12mn
Bit rate mode                            : Constant
Bit rate                                 : 384 Kbps
Channel(s)                               : 6 channels
Channel positions                        : Front: L C R, Side: L R, LFE
Sampling rate                            : 48.0 KHz
Bit depth                                : 16 bits
Compression mode                         : Lossy
Delay relative to video                  : -5ms
Stream size                              : 200 MiB (19%)
Title                                    : Ita Ac3 5.1
Language                                 : Italian
Default                                  : Yes
Forced                                   : No
DURATION                                 : 01:12:48.416000000
NUMBER_OF_FRAMES                         : 136513
NUMBER_OF_BYTES                          : 209683968
_STATISTICS_WRITING_APP                  : mkvmerge v26.0.0 ('In The Game&#39 64-bit
_STATISTICS_WRITING_DATE_UTC             : 2019-02-24 12:55:09
_STATISTICS_TAGS                         : BPS DURATION NUMBER_OF_FRAMES NUMBER_OF_BYTES

Audio #2
ID                                       : 3
Format                                   : AC-3
Format/Info                              : Audio Coding 3
Mode extension                           : CM (complete main)
Codec ID                                 : A_AC3
Duration                                 : 1h 12mn
Bit rate mode                            : Constant
Bit rate                                 : 384 Kbps
Channel(s)                               : 6 channels
Channel positions                        : Front: L C R, Side: L R, LFE
Sampling rate                            : 48.0 KHz
Bit depth                                : 16 bits
Compression mode                         : Lossy
Delay relative to video                  : -5ms
Stream size                              : 200 MiB (19%)
Title                                    : Eng Ac3 5.1
Language                                 : English
Default                                  : No
Forced                                   : No
DURATION                                 : 01:12:48.416000000
NUMBER_OF_FRAMES                         : 136513
NUMBER_OF_BYTES                          : 209683968
_STATISTICS_WRITING_APP                  : mkvmerge v26.0.0 ('In The Game&#39 64-bit
_STATISTICS_WRITING_DATE_UTC             : 2019-02-24 12:55:09
_STATISTICS_TAGS                         : BPS DURATION NUMBER_OF_FRAMES NUMBER_OF_BYTES



Info: Per scaricare devi usare un client come uTorrent o Transmission
AnnounceURL
udp://tracker.coppersurfer.tk:6969/announce
Hash d4417fa37a6669d89c566c48f0051804a4ad95ff
Peers seeds: 11 , leech: 1
Size 1.04 GB
Completato 389x
Aggiunto 20.03.19 - 16:03:33
Uploader   robbyrs
Votazione (Voti: 0)


Condividi questo bittorrent:


html/blog:


bbcode/forum:




Aggiungi Commento


counter