Loading...
 * Dettagli Torrent   globale  | Commenti (1) 


- Aquaman (2018) IMAX.720p.H264.italian.english.Ac3-5.1.multisub.NUita-MIRCrew -


Download via torrent:
Categoria bittorrent BDRip
Descrizione
Visitate mircrew-releases


Aquaman 2018 IMAX.720p.H264.italian.english.Ac3-5.1.multisub.NUita-MIRCrew




NO FOUND ONLY ORIGINAL RELEASE

My release is always in double track audio italian and Original audio
for select it use VLC or dvd player home
not use wmp

PRESENTI I SOTTOTITOLI ITALIANI PER NON UDENTI

Aquaman 2018 IMAX

Quality MIRCrew on HD 720p da  3,0 gb










Paese di produzione Stati Uniti d'America, Australia
Anno 2018
Durata 143 min
Rapporto 2.39:1
Genere azione, fantascienza, avventura, fantastico
Regia James Wan
Soggetto dai fumetti di Mort Weisinger e Paul Norris
storia di Geoff Johns, James Wan e Will Beall
Sceneggiatura David Leslie Johnson-McGoldrick, Will Beall



   Jason Momoa: Arthur Curry / Aquaman
   Amber Heard: principessa Mera
   Willem Dafoe: Nuidis Vulko
   Yahya Abdul-Mateen II: David Kane / Black Manta
   Temuera Morrison: Thomas Curry
   Nicole Kidman: regina Atlanna
   Patrick Wilson: re Orm
   Dolph Lundgren: re Nereus
   Otis Dhanji: Arthur Curry da bambino
   Ludi Lin: Murk
   Michael Beach: Jesse Kane
   Randall Park: dott. Stephen Shin
   Djimon Hounsou: re dei pescatori
   Graham McTavish: re Atlan



La storia delle origini del mezzo umano e mezzo atlantideo Arthur Curry e del viaggio della sua vita, che non solo lo costringerà ad affrontare chi è veramente, ma anche a scoprire se è degno di essere ciò per cui è nato: un re.



Arthur Curry, the human-born heir to the underwater kingdom of Atlantis, goes on a quest to prevent a war between the worlds of ocean and land.





General
Unique ID                                : 241784215399922307130366862499682074603 (0xB5E5F23074E0EBD59560D2341B9E3FEB)
Complete name                            : Aquaman (201.720p.h264.ita.eng.multisub.NUita-MIRCrewAquaman (201.720p.h264.ita.eng.multisubMIRCrew.mkv
Format                                   : Matroska
Format version                           : Version 2
File size                                : 3.16 GiB
Duration                                 : 2h 23mn
Overall bit rate                         : 3 160 Kbps
Movie name                               : MIRCrew
Encoded date                             : UTC 2019-03-06T22:14:25Z
Writing application                      : mkvmerge v5.4.0 ('Piper&#39 built on Mar 10 2012 13:34:39
Writing library                          : Lavf55.12.0

Video
ID                                       : 1
Format                                   : AVC
Format/Info                              : Advanced Video Codec
Format profile                           : [email protected]
Format settings, CABAC                   : Yes
Format settings, ReFrames                : 4 frames
Codec ID                                 : V_MPEG4/ISO/AVC
Duration                                 : 2h 23mn
Bit rate                                 : 2 100 Kbps
Width                                    : 1 280 pixels
Height                                   : 720 pixels
Display aspect ratio                     : 16:9
Frame rate                               : 23.976 fps
Color space                              : YUV
Chroma subsampling                       : 4:2:0
Bit depth                                : 8 bits
Scan type                                : Progressive
Bits/(Pixel*Frame)                       : 0.095
Stream size                              : 2.01 GiB (64%)
Title                                    : MIRCrew
Writing library                          : x264 core 142 r2479 dd79a61
Encoding settings                        : cabac=1 / ref=1 / deblock=1:-1:-1 / analyse=0x1:0x111 / me=hex / subme=2 / psy=1 / psy_rd=1.00:0.15 / mixed_ref=0 / me_range=16 / chroma_me=1 / trellis=0 / 8x8dct=0 / cqm=0 / deadzone=21,11 / fast_pskip=1 / chroma_qp_offset=0 / threads=6 / lookahead_threads=2 / sliced_threads=0 / nr=0 / decimate=1 / interlaced=0 / bluray_compat=0 / constrained_intra=0 / bframes=3 / b_pyramid=2 / b_adapt=1 / b_bias=0 / direct=1 / weightb=1 / open_gop=0 / weightp=1 / keyint=240 / keyint_min=24 / scenecut=40 / intra_refresh=0 / rc_lookahead=10 / rc=abr / mbtree=1 / bitrate=2100 / ratetol=1.0 / qcomp=0.60 / qpmin=0 / qpmax=69 / qpstep=4 / vbv_maxrate=50000 / vbv_bufsize=62500 / nal_hrd=none / filler=0 / ip_ratio=1.40 / aq=1:1.00
Language                                 : Italian
Default                                  : Yes
Forced                                   : No
Color primaries                          : BT.709-5, BT.1361, IEC 61966-2-4, SMPTE RP177
Transfer characteristics                 : BT.709-5, BT.1361
Matrix coefficients                      : BT.709-5, BT.1361, IEC 61966-2-4 709, SMPTE RP177

Audio #1
ID                                       : 2
Format                                   : AC-3
Format/Info                              : Audio Coding 3
Mode extension                           : CM (complete main)
Codec ID                                 : A_AC3
Duration                                 : 2h 23mn
Bit rate mode                            : Constant
Bit rate                                 : 640 Kbps
Channel(s)                               : 6 channels
Channel positions                        : Front: L C R, Side: L R, LFE
Sampling rate                            : 48.0 KHz
Bit depth                                : 16 bits
Compression mode                         : Lossy
Delay relative to video                  : -83ms
Stream size                              : 656 MiB (20%)
Title                                    : Ita Ac3 5.1
Language                                 : Italian
Default                                  : No
Forced                                   : No

Audio #2
ID                                       : 3
Format                                   : AC-3
Format/Info                              : Audio Coding 3
Mode extension                           : CM (complete main)
Codec ID                                 : A_AC3
Duration                                 : 2h 23mn
Bit rate mode                            : Constant
Bit rate                                 : 448 Kbps
Channel(s)                               : 6 channels
Channel positions                        : Front: L C R, Side: L R, LFE
Sampling rate                            : 48.0 KHz
Bit depth                                : 16 bits
Compression mode                         : Lossy
Delay relative to video                  : -5ms
Stream size                              : 459 MiB (14%)
Title                                    : Eng Ac3 5.1
Language                                 : English
Default                                  : No
Forced                                   : No



Info: Per scaricare devi usare un client come uTorrent o Transmission
AnnounceURL
udp://tracker.coppersurfer.tk:6969/announce
Hash b15a02e16ec1cf885e1e35d1828262ee8629e00c
Peers seeds: 185 , leech: 33
Size 3.16 GB
Completato 5677x
Aggiunto 20.03.19 - 13:03:43
Uploader   robbyrs
Votazione (Voti: 2)


Condividi questo bittorrent:


html/blog:


bbcode/forum:




Aggiungi Commento
Ultimi commenti
  
Audio ottimo e video stupendo
12/04 19.10
Tutti commenti (1)


counter