Loading...
 * Dettagli Torrent   globale  | Commenti (0) 


- Nurse 3D - Nurse - L infermiera (2013).720p.H264.italian.english.Ac3.sub.NUita.eng-MIRCrew -


Download via torrent:
Categoria bittorrent BDRip
Descrizione
visitate mircrew-releases

Nurse 3D - Nurse - L infermiera (2013).720p.H264.italian.english.Ac3.sub.NUita.eng-MIRCrew


NO FOUND ONLY ORIGINAL RELEASE

My release is always in double track audio italian and Original audio
for select it use VLC or dvd player home
not use wmp

Nurse - L infermiera - Nurse 3D

(2013)

Quality MIRCrew on HD 720p da  1,6 gb









Titolo originale Nurse 3D
Lingua originale inglese
Paese di produzione Stati Uniti d'America
Anno 2013
Durata 84 min
Genere thriller, erotico, orrore
Regia Doug Aarniokoski
Sceneggiatura David Loughery, Doug Aarniokoski



   Paz de la Huerta: Abby Russell/Sarah Price
   Katia Peel: Abby (giovane)/Sarah (giovane)
   Katrina Bowden: Danni Rodgers
   Kathleen Turner: Betty Watson
   Judd Nelson: Dr. Morris
   Corbin Bleu: Steve
   Boris Kodjoe: Detective John Rogan
   Michael Eklund: Richie
   Niecy Nash: Regina



Di giorno, Abby Russell è un'infermiera che svolge il suo lavoro in maniera inappuntabile, non esitando a occuparsi amorevolmente dei pazienti che accudisce. Di notte, invece, si trasforma in un'assassina folle e spietata che usa la sua sensualità per accalappiare le vittime e ucciderle in maniera efferata



By day, Abby Russell is a dedicated nurse, but by night, she lures cheating men to their brutal deaths and exposes them for who they really are.

 






General
Unique ID                                : 165459157102389605480668360152800545988 (0x7C7A46472EAE4601A2AEE1BEE253CCC4)
Complete name                            : Nurse - L'infermiera (2013).720p.h264.ita.eng.subNUita.eng - MIRCrewNurse - L'infermiera (2013).720p.h264.ita.eng.subNUita.eng - MIRCrew.mkv
Format                                   : Matroska
Format version                           : Version 4 / Version 2
File size                                : 1.55 GiB
Duration                                 : 1h 24mn
Overall bit rate                         : 2 649 Kbps
Movie name                               : MIRCrew
Encoded date                             : UTC 2019-03-10T21:43:32Z
Writing application                      : mkvmerge v26.0.0 ('In The Game&#39 64-bit
Writing library                          : Lavf55.12.0

Video
ID                                       : 1
Format                                   : AVC
Format/Info                              : Advanced Video Codec
Format profile                           : [email protected]
Format settings, CABAC                   : Yes
Format settings, ReFrames                : 4 frames
Codec ID                                 : V_MPEG4/ISO/AVC
Duration                                 : 1h 24mn
Bit rate                                 : 1 900 Kbps
Width                                    : 1 280 pixels
Height                                   : 528 pixels
Display aspect ratio                     : 2.40:1
Frame rate mode                          : Variable
Frame rate                               : 23.976 fps
Color space                              : YUV
Chroma subsampling                       : 4:2:0
Bit depth                                : 8 bits
Scan type                                : Progressive
Bits/(Pixel*Frame)                       : 0.117
Stream size                              : 1.07 GiB (69%)
Title                                    : MIRCrew
Writing library                          : x264 core 142 r2479 dd79a61
Encoding settings                        : cabac=1 / ref=1 / deblock=1:-1:-1 / analyse=0x1:0x111 / me=hex / subme=2 / psy=1 / psy_rd=1.00:0.15 / mixed_ref=0 / me_range=16 / chroma_me=1 / trellis=0 / 8x8dct=0 / cqm=0 / deadzone=21,11 / fast_pskip=1 / chroma_qp_offset=0 / threads=6 / lookahead_threads=2 / sliced_threads=0 / nr=0 / decimate=1 / interlaced=0 / bluray_compat=0 / constrained_intra=0 / bframes=3 / b_pyramid=2 / b_adapt=1 / b_bias=0 / direct=1 / weightb=1 / open_gop=0 / weightp=1 / keyint=240 / keyint_min=24 / scenecut=40 / intra_refresh=0 / rc_lookahead=10 / rc=abr / mbtree=1 / bitrate=1900 / ratetol=1.0 / qcomp=0.60 / qpmin=0 / qpmax=69 / qpstep=4 / vbv_maxrate=50000 / vbv_bufsize=62500 / nal_hrd=none / filler=0 / ip_ratio=1.40 / aq=1:1.00
Language                                 : Italian
Default                                  : Yes
Forced                                   : No
DURATION                                 : 01:23:54.029000000
NUMBER_OF_FRAMES                         : 120696
NUMBER_OF_BYTES                          : 1183973842
_STATISTICS_WRITING_APP                  : mkvmerge v26.0.0 ('In The Game&#39 64-bit
_STATISTICS_WRITING_DATE_UTC             : 2019-03-12 21:02:13
_STATISTICS_TAGS                         : BPS DURATION NUMBER_OF_FRAMES NUMBER_OF_BYTES
Color primaries                          : BT.709-5, BT.1361, IEC 61966-2-4, SMPTE RP177
Transfer characteristics                 : BT.709-5, BT.1361
Matrix coefficients                      : BT.709-5, BT.1361, IEC 61966-2-4 709, SMPTE RP177

Audio #1
ID                                       : 2
Format                                   : AC-3
Format/Info                              : Audio Coding 3
Mode extension                           : CM (complete main)
Codec ID                                 : A_AC3
Duration                                 : 1h 24mn
Bit rate mode                            : Constant
Bit rate                                 : 384 Kbps
Channel(s)                               : 6 channels
Channel positions                        : Front: L C R, Side: L R, LFE
Sampling rate                            : 48.0 KHz
Bit depth                                : 16 bits
Compression mode                         : Lossy
Delay relative to video                  : -5ms
Stream size                              : 231 MiB (14%)
Title                                    : Ita Ac3 5.1
Language                                 : Italian
Default                                  : Yes
Forced                                   : No
DURATION                                 : 01:24:00.256000000
NUMBER_OF_FRAMES                         : 157508
NUMBER_OF_BYTES                          : 241932288
_STATISTICS_WRITING_APP                  : mkvmerge v26.0.0 ('In The Game&#39 64-bit
_STATISTICS_WRITING_DATE_UTC             : 2019-03-12 21:02:13
_STATISTICS_TAGS                         : BPS DURATION NUMBER_OF_FRAMES NUMBER_OF_BYTES

Audio #2
ID                                       : 3
Format                                   : AC-3
Format/Info                              : Audio Coding 3
Mode extension                           : CM (complete main)
Codec ID                                 : A_AC3
Duration                                 : 1h 24mn
Bit rate mode                            : Constant
Bit rate                                 : 384 Kbps
Channel(s)                               : 6 channels
Channel positions                        : Front: L C R, Side: L R, LFE
Sampling rate                            : 48.0 KHz
Bit depth                                : 16 bits
Compression mode                         : Lossy
Delay relative to video                  : -5ms
Stream size                              : 231 MiB (14%)
Title                                    : Eng Ac3 5.1
Language                                 : English
Default                                  : No
Forced                                   : No
DURATION                                 : 01:23:54.112000000
NUMBER_OF_FRAMES                         : 157316
NUMBER_OF_BYTES                          : 241637376
_STATISTICS_WRITING_APP                  : mkvmerge v26.0.0 ('In The Game&#39 64-bit
_STATISTICS_WRITING_DATE_UTC             : 2019-03-12 21:02:13
_STATISTICS_TAGS                         : BPS DURATION NUMBER_OF_FRAMES NUMBER_OF_BYTES







Info: Per scaricare devi usare un client come uTorrent o Transmission
AnnounceURL
udp://tracker.coppersurfer.tk:6969/announce
Hash 5a1266b980c553b0bce2963d8dd6dcda8463e297
Peers seeds: 60 , leech: 54
Size 1.55 GB
Completato 129x
Aggiunto 15.03.19 - 20:03:30
Uploader   robbyrs
Votazione (Voti: 1)


Condividi questo bittorrent:


html/blog:


bbcode/forum:




Aggiungi Commento


counter