Loading...
 * Dettagli Torrent   globale  | Commenti (0) 


- 28 Settimane Dopo (2007).720p.H264.italian.english.Ac3-5.1.sub.ita.eng-MIRCrew -


Download via torrent:
Categoria bittorrent BDRip
Descrizione
28 Weeks Later - 28 Settimane Dopo (2007).720p.H264.italian.english.Ac3-5.1.sub.ita.eng-MIRCrew



NO FOUND ONLY ORIGINAL RELEASE

My release is always in double track audio italian and Original audio
for select it use VLC or dvd player home
not use wmp

28 Settimane Dopo - 28 Weeks Later (2007)

Quality MIRCrew on HD 720p da  2,0 gb










Titolo originale 28 Weeks Later
Lingua originale inglese
Paese di produzione Spagna, Gran Bretagna
Anno 2007
Durata 100 min
Rapporto 1,85:1
Genere orrore
Regia Juan Carlos Fresnadillo
Sceneggiatura Rowan Joffe, Enrique Lopez Lavigne, Jesus Olmo, Juan Carlos Fresnadillo
Produttore Andrew Macdonald, Allon Reich, Enrique López Lavigne
Produttore esecutivo Danny Boyle, Alex Garland
Casa di produzione Fox Atomic
Fotografia Enrique Chediak
Montaggio Chris Gill
Effetti speciali Richard Conway, Ceri Nicholls
Musiche John Murphy
Scenografia Mark Tildesley
Costumi Jane Petrie
Trucco Dave Bonneywell



Robert Carlyle: Donald "Don" Harris
Jeremy Renner: Sergente Doyle
Rose Byrne: Scarlett Ross
Catherine McCormack: Alice Harris
Harold Perrineau: Flynn
Imogen Poots: Tammy Harris
Mackintosh Muggleton: Andy Harris
Idris Elba: Stone



La Gran Bretagna è devastata dalla catastrofica epidemia di un Virus, versione modificata del virus della Rabbia, che si diffonde rapidamente tra gli esseri umani attraverso il sangue e la saliva, trasformando i contagiati in esseri omicidi e senza alcun controllo. Dopo 28 settimane (circa sette mesi) di quarantena, in seguito al decesso per fame degli infetti, il virus sembra debellato e può iniziare la ricostruzione del Paese............



Six months after the rage virus was inflicted on the population of Great Britain, the US Army helps to secure a small area of London for the survivors to repopulate and start again. But not everything goes to plan.  





General
Unique ID                                : 206340171886003691096915915492223678666 (0x9B3BABEC70718D8C972499F4D8A4F8CA)
Complete name                            : 28 Settimane Dopo - 28 Weeks Later (2007).720p.H264.ita.eng.sub.ita.eng-MIRCrew28 Settimane Dopo - 28 Weeks Later (2007).720p.H264.ita.eng.sub.ita.eng-MIRCrew.mkv
Format                                   : Matroska
Format version                           : Version 2
File size                                : 1.96 GiB
Duration                                 : 1h 40mn
Overall bit rate                         : 2 808 Kbps
Movie name                               : MIRCrew
Encoded date                             : UTC 2019-03-03T18:49:13Z
Writing application                      : mkvmerge v5.4.0 ('Piper&#39 built on Mar 10 2012 13:34:39
Writing library                          : Lavf55.12.0

Video
ID                                       : 1
Format                                   : AVC
Format/Info                              : Advanced Video Codec
Format profile                           : [email protected]
Format settings, CABAC                   : Yes
Format settings, ReFrames                : 4 frames
Codec ID                                 : V_MPEG4/ISO/AVC
Duration                                 : 1h 40mn
Bit rate                                 : 1 856 Kbps
Nominal bit rate                         : 2 000 Kbps
Width                                    : 1 280 pixels
Height                                   : 688 pixels
Display aspect ratio                     : 1.860
Frame rate                               : 23.976 fps
Color space                              : YUV
Chroma subsampling                       : 4:2:0
Bit depth                                : 8 bits
Scan type                                : Progressive
Bits/(Pixel*Frame)                       : 0.088
Stream size                              : 1.30 GiB (66%)
Title                                    : MIRCrew
Writing library                          : x264 core 142 r2479 dd79a61
Encoding settings                        : cabac=1 / ref=1 / deblock=1:0:0 / analyse=0x1:0x111 / me=hex / subme=2 / psy=1 / psy_rd=1.00:0.00 / mixed_ref=0 / me_range=16 / chroma_me=1 / trellis=0 / 8x8dct=0 / cqm=0 / deadzone=21,11 / fast_pskip=1 / chroma_qp_offset=0 / threads=6 / lookahead_threads=2 / sliced_threads=0 / nr=0 / decimate=1 / interlaced=0 / bluray_compat=0 / constrained_intra=0 / bframes=3 / b_pyramid=2 / b_adapt=1 / b_bias=0 / direct=1 / weightb=1 / open_gop=0 / weightp=1 / keyint=240 / keyint_min=24 / scenecut=40 / intra_refresh=0 / rc_lookahead=10 / rc=abr / mbtree=1 / bitrate=2000 / ratetol=1.0 / qcomp=0.60 / qpmin=0 / qpmax=69 / qpstep=4 / vbv_maxrate=50000 / vbv_bufsize=62500 / nal_hrd=none / filler=0 / ip_ratio=1.40 / aq=1:1.00
Language                                 : Italian
Default                                  : Yes
Forced                                   : No
Color primaries                          : BT.709-5, BT.1361, IEC 61966-2-4, SMPTE RP177
Transfer characteristics                 : BT.709-5, BT.1361
Matrix coefficients                      : BT.709-5, BT.1361, IEC 61966-2-4 709, SMPTE RP177

Audio #1
ID                                       : 2
Format                                   : AC-3
Format/Info                              : Audio Coding 3
Mode extension                           : CM (complete main)
Codec ID                                 : A_AC3
Duration                                 : 1h 40mn
Bit rate mode                            : Constant
Bit rate                                 : 448 Kbps
Channel(s)                               : 6 channels
Channel positions                        : Front: L C R, Side: L R, LFE
Sampling rate                            : 48.0 KHz
Bit depth                                : 16 bits
Compression mode                         : Lossy
Delay relative to video                  : -83ms
Stream size                              : 321 MiB (16%)
Title                                    : Ita Ac3 5.1
Language                                 : Italian
Default                                  : No
Forced                                   : No

Audio #2
ID                                       : 3
Format                                   : AC-3
Format/Info                              : Audio Coding 3
Mode extension                           : CM (complete main)
Codec ID                                 : A_AC3
Duration                                 : 1h 40mn
Bit rate mode                            : Constant
Bit rate                                 : 448 Kbps
Channel(s)                               : 6 channels
Channel positions                        : Front: L C R, Side: L R, LFE
Sampling rate                            : 48.0 KHz
Bit depth                                : 16 bits
Compression mode                         : Lossy
Delay relative to video                  : -5ms
Stream size                              : 321 MiB (16%)
Title                                    : Eng Ac3 5.1
Language                                 : English
Default                                  : No
Forced                                   : No



Info: Per scaricare devi usare un client come uTorrent o Transmission
AnnounceURL
udp://tracker.coppersurfer.tk:6969/announce
Hash 502bc57afe02061c29cef69224968fc3a3acd8e0
Peers seeds: 35 , leech: 27
Size 1.96 GB
Completato 116x
Aggiunto 12.03.19 - 19:03:25
Uploader   robbyrs
Votazione (Voti: 0)


Condividi questo bittorrent:


html/blog:


bbcode/forum:




Aggiungi Commento


counter