Loading...
 * Dettagli Torrent   globale  | Commenti (0) 


- 28 Giorni dopo (2002).720p.H264.italian.english.Ac3-5.1.sub.ita.eng-MIRCrew -


Download via torrent:
Categoria bittorrent BDRip
Descrizione
28 Days Later - 28 Giorni dopo  (2002).720p.H264.italian.english.Ac3-5.1.sub.ita.eng-MIRCrew



NO FOUND ONLY ORIGINAL RELEASE



My release is always in double track audio italian and Original audio
for select it use VLC or dvd player home
not use wmp

28 Giorni dopo - Days Later (2002)

Quality MIRCrew on HD 720p da  2,3 gb










Titolo originale 28 Days Later
Lingua originale inglese
Paese di produzione Regno Unito
Anno 2002
Durata 112 min
Rapporto 1.85:1
Genere orrore, thriller, drammatico, fantascienza
Regia Danny Boyle
Sceneggiatura Alex Garland
Produttore Robert How, Andrew Macdonald
Casa di produzione British Film Council, DNA Films
Distribuzione (Italia) 20th Century Fox
Fotografia Anthony Dod Mantle
Montaggio Chris Gill
Effetti speciali Richard Conway, Bob Hollow
Musiche John Murphy
Scenografia Mark Tildesley
Costumi Rachael Fleming



Cillian Murphy: Jim
Naomie Harris: Selena
Megan Burns: Hannah
Brendan Gleeson: Frank
Noah Huntley: Mark
Christopher Eccleston: maggiore Henry West
Stuart McQuarrie: sergente Farrell
Ricci Harnett: caporale Mitchell
Leo Bill: soldato Jones
Luke Mably: soldato Clifton
Junior Laniyan: soldato Bell
Ray Panthaki: soldato Bedford
Sanjay Rambaruth: soldato Davis
Marvin Campbell: soldato Mailer
David Schneider: ricercatore



In Inghilterra un gruppo di attivisti animalisti (due uomini e una donna), si introduce di notte in un centro di ricerca scientifico con l'intento di liberare degli scimpanzé geneticamente modificati e impiegate come cavie (una di queste, legata a una sedia, viene costretta a osservare su un monitor una serie di filmati di rabbia truculenta umana). Gli intrusi si accingono ad aprire le gabbie quando un medico ricercatore li scopre e................



Four weeks after a mysterious, incurable virus spreads throughout the UK, a handful of survivors try to find sanctuary.





General
Unique ID                                : 215323329053931119272180162198878205101 (0xA1FDC3C45CEBE25EB5FDFD53DBB6B4AD)
Complete name                            : 28 Giorni dopo - Days Later (2002).720p.H264.ita.eng.sub.ita.eng-MIRCrew28 Giorni dopo - Days Later (2002).720p.H264.ita.eng.sub.ita.eng-MIRCrew.mkv
Format                                   : Matroska
Format version                           : Version 2
File size                                : 2.28 GiB
Duration                                 : 1h 53mn
Overall bit rate                         : 2 882 Kbps
Movie name                               : MIRCrew
Encoded date                             : UTC 2019-03-03T00:50:35Z
Writing application                      : mkvmerge v5.4.0 ('Piper&#39 built on Mar 10 2012 13:34:39
Writing library                          : Lavf55.12.0

Video
ID                                       : 1
Format                                   : AVC
Format/Info                              : Advanced Video Codec
Format profile                           : [email protected]
Format settings, CABAC                   : Yes
Format settings, ReFrames                : 4 frames
Codec ID                                 : V_MPEG4/ISO/AVC
Duration                                 : 1h 53mn
Bit rate                                 : 2 000 Kbps
Width                                    : 1 280 pixels
Height                                   : 688 pixels
Display aspect ratio                     : 1.860
Frame rate                               : 23.976 fps
Color space                              : YUV
Chroma subsampling                       : 4:2:0
Bit depth                                : 8 bits
Scan type                                : Progressive
Bits/(Pixel*Frame)                       : 0.095
Stream size                              : 1.52 GiB (67%)
Title                                    : MIRCrew
Writing library                          : x264 core 142 r2479 dd79a61
Encoding settings                        : cabac=1 / ref=1 / deblock=1:0:0 / analyse=0x1:0x111 / me=hex / subme=2 / psy=1 / psy_rd=1.00:0.00 / mixed_ref=0 / me_range=16 / chroma_me=1 / trellis=0 / 8x8dct=0 / cqm=0 / deadzone=21,11 / fast_pskip=1 / chroma_qp_offset=0 / threads=6 / lookahead_threads=2 / sliced_threads=0 / nr=0 / decimate=1 / interlaced=0 / bluray_compat=0 / constrained_intra=0 / bframes=3 / b_pyramid=2 / b_adapt=1 / b_bias=0 / direct=1 / weightb=1 / open_gop=0 / weightp=1 / keyint=240 / keyint_min=24 / scenecut=40 / intra_refresh=0 / rc_lookahead=10 / rc=abr / mbtree=1 / bitrate=2000 / ratetol=1.0 / qcomp=0.60 / qpmin=0 / qpmax=69 / qpstep=4 / vbv_maxrate=50000 / vbv_bufsize=62500 / nal_hrd=none / filler=0 / ip_ratio=1.40 / aq=1:1.00
Language                                 : Italian
Default                                  : Yes
Forced                                   : No
Color primaries                          : BT.709-5, BT.1361, IEC 61966-2-4, SMPTE RP177
Transfer characteristics                 : BT.709-5, BT.1361
Matrix coefficients                      : BT.709-5, BT.1361, IEC 61966-2-4 709, SMPTE RP177

Audio #1
ID                                       : 2
Format                                   : AC-3
Format/Info                              : Audio Coding 3
Mode extension                           : CM (complete main)
Codec ID                                 : A_AC3
Duration                                 : 1h 53mn
Bit rate mode                            : Constant
Bit rate                                 : 448 Kbps
Channel(s)                               : 6 channels
Channel positions                        : Front: L C R, Side: L R, LFE
Sampling rate                            : 48.0 KHz
Bit depth                                : 16 bits
Compression mode                         : Lossy
Delay relative to video                  : -83ms
Stream size                              : 363 MiB (16%)
Title                                    : Ita Ac3 5.1
Language                                 : Italian
Default                                  : No
Forced                                   : No

Audio #2
ID                                       : 3
Format                                   : AC-3
Format/Info                              : Audio Coding 3
Mode extension                           : CM (complete main)
Codec ID                                 : A_AC3
Duration                                 : 1h 53mn
Bit rate mode                            : Constant
Bit rate                                 : 448 Kbps
Channel(s)                               : 6 channels
Channel positions                        : Front: L C R, Side: L R, LFE
Sampling rate                            : 48.0 KHz
Bit depth                                : 16 bits
Compression mode                         : Lossy
Delay relative to video                  : -5ms
Stream size                              : 363 MiB (16%)
Title                                    : Eng Ac3 5.1
Language                                 : English
Default                                  : No
Forced                                   : No

Menu
00:00:00.000                             : :Chapter 1
00:05:29.078                             : :Chapter 2
00:13:13.125                             : :Chapter 3
00:17:42.645                             : :Chapter 4
00:21:51.018                             : :Chapter 5
00:26:39.097                             : :Chapter 6
00:29:06.369                             : :Chapter 7
00:32:45.588                             : :Chapter 8
00:34:50.838                             : :Chapter 9
00:40:03.275                             : :Chapter 10
00:43:01.287                             : :Chapter 11
00:44:48.560                             : :Chapter 12
00:47:10.869                             : :Chapter 13
00:49:22.834                             : :Chapter 14
00:53:15.776                             : :Chapter 15
00:56:12.410                             : :Chapter 16
00:57:54.345                             : :Chapter 17
01:01:48.454                             : :Chapter 18
01:04:25.027                             : :Chapter 19
01:06:39.912                             : :Chapter 20
01:10:00.654                             : :Chapter 21
01:13:41.333                             : :Chapter 22
01:16:56.028                             : :Chapter 23
01:18:20.112                             : :Chapter 24
01:24:28.938                             : :Chapter 25
01:27:40.880                             : :Chapter 26
01:29:51.719                             : :Chapter 27
01:33:31.105                             : :Chapter 28
01:40:30.357                             : :Chapter 29
01:43:21.195                             : :Chapter 30
01:44:46.572                             : :Chapter 31
01:48:05.520                             : :Chapter 32


Info: Per scaricare devi usare un client come uTorrent o Transmission
AnnounceURL
udp://tracker.coppersurfer.tk:6969/announce
Hash 2f3764abf7f130a6f0cc28d61e7a73c2dccfeb9d
Peers seeds: 36 , leech: 29
Size 2.28 GB
Completato 121x
Aggiunto 12.03.19 - 18:03:12
Uploader   robbyrs
Votazione (Voti: 0)


Condividi questo bittorrent:


html/blog:


bbcode/forum:




Aggiungi Commento


counter