Loading...
 * Dettagli Torrent   globale  | Commenti (0) 


- Saludos Amigos (1942).720p.H264.italian.english.Ac3-5.1-MIRCrew -


Download via torrent:
Categoria bittorrent BDRip
Descrizione
visitate mircrew-releases

Saludos Amigos (1942).720p.H264.italian.english.Ac3-5.1-MIRCrew



NO FOUND ONLY ORIGINAL RELEASE

My release is always in double track audio italian and Original audio
for select it use VLC or dvd player home
not use wmp

Saludos Amigos

(1942)


Quality MIRCrew on HD 720p da  0,8 gb









Episodi:

   Lago Titicaca
   Pedro
   El Gaucho Goofy
   Aquarela do Brasil

Premi:

NBR Award 1943: miglior documentario

Titolo originale Saludos Amigos
Lingua originale inglese, portoghese
Paese di produzione USA
Anno 1942
Durata 42 min
Rapporto 1.37:1
Genere animazione, fantastico, musicale
Regia Wilfred Jackson, Jack Kinney, Hamilton Luske, Bill Roberts
Sceneggiatura Homer Brightman, William Cottrell, Dick Huemer, Joe Grant, Harry Reeves, Ted Sears, Webb Smith, Roy Williams, Ralph Wright



Interpreti e personaggi

   Walt Disney: sé stesso
   Frank Thomas: sé stesso
   Lee Blair: sé stessa
   Mary Blair: sé stessa
   Norman Ferguson: sé stesso
   Frank Graham: sé stesso

Doppiatori originali

   Fred Shields: Narratore
   José Oliveira: José Carioca
   Pinto Colvig: Pippo
   Clarence Nash: Paperino

Doppiatori italiani

   José Oliveira: Narratore, José Carioca
   Clarence Nash: Paperino



Saludos Amigos è un film del 1942 diretto da Wilfred Jackson, Jack Kinney, Hamilton Luske e Bill Roberts. È un mediometraggio d'animazione collettivo prodotto dalla The Walt Disney Company e distribuito dalla RKO Radio Pictures. È il sesto Classico Disney, e il primo di sei film collettivi prodotti dallo studio Disney negli anni quaranta.



Live-action segments show members of the Disney staff touring South America and recording their impressions in sketches. These segue into four animated sections: "Lake Titicaca" depicts tourist Donald Duck's troubles with a stubborn llama; "Pedro" tells of a little mail plane's adventures flying over the treacherous Andes; "El Gaucho Goofy" transplants an American cowboy into the Argentine pampas; and in "Aquarela do Brasil," Jose Carioca shows Donald the sights and sounds of Rio de Janiero.






General
Unique ID                                : 256238587243920047958003761167666831092 (0xC0C5C1BE2C34356B0E99639AEE50DEF4)
Complete name                            : Saludos Amigos (1942).720p.h264.ita.eng-MIRCrewSaludos Amigos (1942).720p.h264.ita.eng-MIRCrew.mkv
Format                                   : Matroska
Format version                           : Version 2
File size                                : 757 MiB
Duration                                 : 41mn 57s
Overall bit rate                         : 2 523 Kbps
Movie name                               : MIRCrew
Encoded date                             : UTC 2018-11-09 10:23:24
Writing application                      : Lavf54.63.100
Writing library                          : Lavf54.63.100

Video
ID                                       : 1
Format                                   : AVC
Format/Info                              : Advanced Video Codec
Format profile                           : [email protected]
Format settings, CABAC                   : Yes
Format settings, ReFrames                : 2 frames
Codec ID                                 : V_MPEG4/ISO/AVC
Duration                                 : 41mn 57s
Bit rate                                 : 1 750 Kbps
Width                                    : 960 pixels
Height                                   : 720 pixels
Display aspect ratio                     : 4:3
Frame rate mode                          : Variable
Frame rate                               : 23.976 fps
Color space                              : YUV
Chroma subsampling                       : 4:2:0
Bit depth                                : 8 bits
Scan type                                : Progressive
Bits/(Pixel*Frame)                       : 0.106
Stream size                              : 512 MiB (68%)
Writing library                          : x264 core 130 r2273
Encoding settings                        : cabac=1 / ref=2 / deblock=1:0:0 / analyse=0x1:0x131 / me=hex / subme=7 / psy=1 / psy_rd=1.00:0.00 / mixed_ref=0 / me_range=16 / chroma_me=1 / trellis=1 / 8x8dct=0 / cqm=0 / deadzone=21,11 / fast_pskip=1 / chroma_qp_offset=-2 / threads=3 / lookahead_threads=1 / sliced_threads=0 / nr=0 / decimate=1 / interlaced=0 / bluray_compat=0 / constrained_intra=0 / bframes=3 / b_pyramid=0 / b_adapt=1 / b_bias=0 / direct=3 / weightb=1 / open_gop=0 / weightp=2 / keyint=230 / keyint_min=23 / scenecut=40 / intra_refresh=0 / rc_lookahead=40 / rc=abr / mbtree=1 / bitrate=1750 / ratetol=1.0 / qcomp=0.60 / qpmin=10 / qpmax=69 / qpstep=4 / vbv_maxrate=24000 / vbv_bufsize=24000 / nal_hrd=none / ip_ratio=1.40 / aq=1:1.00
Language                                 : Italian
Default                                  : Yes
Forced                                   : No
DURATION                                 : 00:41:57.935000000
NUMBER_OF_FRAMES                         : 60370
NUMBER_OF_BYTES                          : 1345661078
_STATISTICS_WRITING_APP                  : mkvmerge v25.0.0 ('Prog Noir&#39 64-bit
_STATISTICS_WRITING_DATE_UTC             : 2018-09-17 21:49:47
_STATISTICS_TAGS                         : BPS DURATION NUMBER_OF_FRAMES NUMBER_OF_BYTES

Audio #1
ID                                       : 2
Format                                   : AC-3
Format/Info                              : Audio Coding 3
Mode extension                           : CM (complete main)
Codec ID                                 : A_AC3
Duration                                 : 41mn 57s
Bit rate mode                            : Constant
Bit rate                                 : 384 Kbps
Channel(s)                               : 6 channels
Channel positions                        : Front: L C R, Side: L R, LFE
Sampling rate                            : 48.0 KHz
Bit depth                                : 16 bits
Compression mode                         : Lossy
Delay relative to video                  : 1mn 5s
Stream size                              : 115 MiB (15%)
Language                                 : Italian
Default                                  : Yes
Forced                                   : No
DURATION                                 : 00:41:57.926000000
NUMBER_OF_FRAMES                         : 72292
NUMBER_OF_BYTES                          : 120860420
_STATISTICS_WRITING_APP                  : mkvmerge v25.0.0 ('Prog Noir&#39 64-bit
_STATISTICS_WRITING_DATE_UTC             : 2018-09-17 21:49:47
_STATISTICS_TAGS                         : BPS DURATION NUMBER_OF_FRAMES NUMBER_OF_BYTES

Audio #2
ID                                       : 3
Format                                   : AC-3
Format/Info                              : Audio Coding 3
Mode extension                           : CM (complete main)
Codec ID                                 : A_AC3
Duration                                 : 41mn 57s
Bit rate mode                            : Constant
Bit rate                                 : 384 Kbps
Channel(s)                               : 6 channels
Channel positions                        : Front: L C R, Side: L R, LFE
Sampling rate                            : 48.0 KHz
Bit depth                                : 16 bits
Compression mode                         : Lossy
Delay relative to video                  : 1mn 5s
Stream size                              : 115 MiB (15%)
Language                                 : English
Default                                  : No
Forced                                   : No
DURATION                                 : 00:41:57.920000000
NUMBER_OF_FRAMES                         : 78685
NUMBER_OF_BYTES                          : 120860160
_STATISTICS_WRITING_APP                  : mkvmerge v25.0.0 ('Prog Noir&#39 64-bit
_STATISTICS_WRITING_DATE_UTC             : 2018-09-17 21:49:47
_STATISTICS_TAGS                         : BPS DURATION NUMBER_OF_FRAMES NUMBER_OF_BYTES



Info: Per scaricare devi usare un client come uTorrent o Transmission
AnnounceURL
udp://tracker.coppersurfer.tk:6969/announce
Hash 28a998f4c2002cba2ef801581cf2c18157596244
Peers seeds: 28 , leech: 2
Size 757.38 MB
Completato 337x
Aggiunto 08.03.19 - 16:03:09
Uploader   robbyrs
Votazione (Voti: 0)


Condividi questo bittorrent:


html/blog:


bbcode/forum:




Aggiungi Commento


counter