Loading...
 * Dettagli Torrent   globale  | Commenti (0) 


- Nelle pieghe del tempo (2018).720p.H264.italian.english.Ac3-5.1.multisub-MIRCrew -


Download via torrent:
Categoria bittorrent BDRip
Descrizione
visitate mircrew-releases

A Wrinkle in Time - Nelle pieghe del tempo 2018.720p.H264.italian.english.Ac3-5.1.multisub-MIRCrew


NO FOUND ONLY ORIGINAL RELEASE

My release is always in double track audio italian and Original audio
for select it use VLC or dvd player home
not use wmp

Nelle pieghe del tempo

A Wrinkle in Time

2018


Quality MIRCrew on HD 720p da  2,1 gb









GENERE: Avventura, Family, Fantasy, Fantascienza
ANNO: 2018
REGIA: Ava DuVernay
PAESE: USA
DURATA: 109 Min



Chris Pine, Reese Witherspoon, Storm Reid, Gugu Mbatha-Raw, Michael Peña, Zach Galifianakis, Bellamy Young, Mindy Kaling, Levi Miller, Oprah Winfrey, André Holland, Daniel MacPherson, Storm Reed, David Oyelowo, Will McCormack, Deric McCabe, Rowan Blanchard



il film diretto da Ava DuVernay, racconta le avventure della quattordicenne Meg Murry (Storm Reid), della sua famiglia di menti geniali e dei loro strampalati vicini di casa.



After the disappearance of her scientist father, three peculiar beings send Meg, her brother, and her friend to space in order to find him.





General
Unique ID                                : 202796236059057229565978736072534164893 (0x98912265A5BB5BB2B8B7F063A216859D)
Complete name                            : Nelle pieghe del tempo - A Wrinkle in Time (201.720p.h264.ita.eng.multisub-MIRCrewNelle pieghe del tempo - A Wrinkle in Time  (201.720p.h264.ita.eng.sub.ita-MIRCrew.mkv
Format                                   : Matroska
Format version                           : Version 2
File size                                : 2.13 GiB
Duration                                 : 1h 49mn
Overall bit rate                         : 2 782 Kbps
Movie name                               : MIRCrew
Encoded date                             : UTC 2019-03-05T16:13:36Z
Writing application                      : mkvmerge v5.4.0 ('Piper&#39 built on Mar 10 2012 13:34:39
Writing library                          : Lavf55.12.0

Video
ID                                       : 1
Format                                   : AVC
Format/Info                              : Advanced Video Codec
Format profile                           : [email protected]
Format settings, CABAC                   : Yes
Format settings, ReFrames                : 4 frames
Codec ID                                 : V_MPEG4/ISO/AVC
Duration                                 : 1h 49mn
Bit rate                                 : 1 900 Kbps
Width                                    : 1 280 pixels
Height                                   : 528 pixels
Display aspect ratio                     : 2.40:1
Frame rate                               : 23.976 fps
Color space                              : YUV
Chroma subsampling                       : 4:2:0
Bit depth                                : 8 bits
Scan type                                : Progressive
Bits/(Pixel*Frame)                       : 0.117
Stream size                              : 1.40 GiB (66%)
Title                                    : MIRCrew
Writing library                          : x264 core 142 r2479 dd79a61
Encoding settings                        : cabac=1 / ref=1 / deblock=1:-1:-1 / analyse=0x1:0x111 / me=hex / subme=2 / psy=1 / psy_rd=1.00:0.15 / mixed_ref=0 / me_range=16 / chroma_me=1 / trellis=0 / 8x8dct=0 / cqm=0 / deadzone=21,11 / fast_pskip=1 / chroma_qp_offset=0 / threads=6 / lookahead_threads=2 / sliced_threads=0 / nr=0 / decimate=1 / interlaced=0 / bluray_compat=0 / constrained_intra=0 / bframes=3 / b_pyramid=2 / b_adapt=1 / b_bias=0 / direct=1 / weightb=1 / open_gop=0 / weightp=1 / keyint=240 / keyint_min=24 / scenecut=40 / intra_refresh=0 / rc_lookahead=10 / rc=abr / mbtree=1 / bitrate=1900 / ratetol=1.0 / qcomp=0.60 / qpmin=0 / qpmax=69 / qpstep=4 / vbv_maxrate=50000 / vbv_bufsize=62500 / nal_hrd=none / filler=0 / ip_ratio=1.40 / aq=1:1.00
Language                                 : Italian
Default                                  : Yes
Forced                                   : No
Color primaries                          : BT.709-5, BT.1361, IEC 61966-2-4, SMPTE RP177
Transfer characteristics                 : BT.709-5, BT.1361
Matrix coefficients                      : BT.709-5, BT.1361, IEC 61966-2-4 709, SMPTE RP177

Audio #1
ID                                       : 2
Format                                   : AC-3
Format/Info                              : Audio Coding 3
Mode extension                           : CM (complete main)
Codec ID                                 : A_AC3
Duration                                 : 1h 49mn
Bit rate mode                            : Constant
Bit rate                                 : 448 Kbps
Channel(s)                               : 6 channels
Channel positions                        : Front: L C R, Side: L R, LFE
Sampling rate                            : 48.0 KHz
Bit depth                                : 16 bits
Compression mode                         : Lossy
Delay relative to video                  : -5ms
Stream size                              : 351 MiB (16%)
Title                                    : Ita Ac3 5.1
Language                                 : Italian
Default                                  : Yes
Forced                                   : No

Audio #2
ID                                       : 3
Format                                   : AC-3
Format/Info                              : Audio Coding 3
Mode extension                           : CM (complete main)
Codec ID                                 : A_AC3
Duration                                 : 1h 49mn
Bit rate mode                            : Constant
Bit rate                                 : 448 Kbps
Channel(s)                               : 6 channels
Channel positions                        : Front: L C R, Side: L R, LFE
Sampling rate                            : 48.0 KHz
Bit depth                                : 16 bits
Compression mode                         : Lossy
Delay relative to video                  : -5ms
Stream size                              : 351 MiB (16%)
Title                                    : Eng Ac3 5.1
Language                                 : English
Default                                  : No
Forced                                   : No

Menu
00:00:00.000                             : :Four Years
00:09:39.996                             : :Mrs. WhatsIt
00:13:46.992                             : :Mrs. Who
00:18:04.208                             : :Quantum Entanglement
00:21:28.412                             : :Mrs. Which
00:28:32.627                             : :Uriel
00:39:14.936                             : :The Happy Medium
00:48:41.376                             : :Love Is The Frequency
00:54:03.323                             : :Camazotz
01:03:04.655                             : :"A Planet Of Many Faces"
01:09:48.392                             : :Central Central Intelligence
01:19:03.322                             : :The It
01:29:05.673                             : :"Warriors On Earth"
01:40:03.622                             : :End Credits



Info: Per scaricare devi usare un client come uTorrent o Transmission
AnnounceURL
udp://tracker.coppersurfer.tk:6969/announce
Hash a65b5b14c78d748eceb8f3114c5ef98e11cbc078
Peers seeds: 140 , leech: 22
Size 2.13 GB
Completato 3679x
Aggiunto 06.03.19 - 16:03:39
Uploader   robbyrs
Votazione (Voti: 0)


Condividi questo bittorrent:


html/blog:


bbcode/forum:




Aggiungi Commento


counter