Loading...
 * Dettagli Torrent   globale  | Commenti (0) 


- Il fuggitivo (1993).720p.H264.italian.english.Ac3-5.1.multisub-MIRCrew -


Download via torrent:
Categoria bittorrent BDRip
Descrizione
Visitate mircrew-releases

The Fugitive - Il fuggitivo (1993).720p.H264.italian.english.Ac3-5.1.multisub-MIRCrew


NO FOUND ONLY ORIGINAL RELEASE

My release is always in double track audio italian and Original audio
for select it use VLC or dvd player home
not use wmP

SOTTOTITOLI ITALIANI PER NON UDENTI INCLUSI

Il fuggitivo - The Fugitive

(1993)

Quality MIRCrew on HD 720p da  2,5 gb








Titolo originale The Fugitive
Paese di produzione USA
Anno 1993
Durata 125 min
Rapporto 1,85:1
Genere azione, thriller
Regia Andrew Davis
Soggetto David Twohy
Sceneggiatura Jeb Stuart, David Twohy



   Harrison Ford: Dr. Richard Kimble
   Tommy Lee Jones: Tenente Samuel Gerard
   Sela Ward: Helen Kimble
   Julianne Moore: Dr.ssa Anne Eastman
   Joe Pantoliano: Agente Cosmo Renfro
   Andreas Katsulas: Frederick Sykes
   Jeroen Krabbé: Dr. Charles Nichols
   Daniel Roebuck: Agente Robert Biggs
   L. Scott Caldwell: Agente Poole
   Tom Wood: Agente Noah Newman
   Ron Dean: Detective Kelly
   Andy Romano: Giudice Bennett
   Jane Lynch: Dr.ssa Kathy Wahlund
   Nick Searcy: sceriffo Rawlins
   Joe D. Lauck: Detective



Chicago. Il chirurgo Richard Kimble torna a casa una sera e trova la moglie Helen con il cranio fracassato, assassinata da un uomo con un braccio artificiale: sebbene provi a fermare l'aggressore, questi scappa. Non trovando segni di effrazione ed essendo Kimble l'unico erede della ricca moglie, il dottore viene dichiarato colpevole del delitto e condannato a morte



Dr. Richard Kimble, unjustly accused of murdering his wife, must find the real killer while being the target of a nationwide manhunt lead by a seasoned US Marshall.









General
Unique ID                                : 223339730438290296063155853573995665719 (0xA805AADECE4D0C12CD00AF8D5F989937)
Complete name                            : Il fuggitivo - The Fugitive (1993).720p.h264.ita.eng.multisub-NUita-MIRCrewIl fuggitivo - The Fugitive (1993).720p.h264.ita.eng.multisub-MIRCrew.mkv
Format                                   : Matroska
Format version                           : Version 4 / Version 2
File size                                : 2.54 GiB
Duration                                 : 2h 10mn
Overall bit rate                         : 2 793 Kbps
Movie name                               : MIRCrew
Encoded date                             : UTC 2018-11-24 08:02:32
Writing application                      : mkvmerge v26.0.0 ('In The Game&#39 64-bit
Writing library                          : Lavf54.63.100
COMMENT                                  : MIRCrew

Video
ID                                       : 1
Format                                   : AVC
Format/Info                              : Advanced Video Codec
Format profile                           : [email protected]
Format settings, CABAC                   : Yes
Format settings, ReFrames                : 2 frames
Codec ID                                 : V_MPEG4/ISO/AVC
Duration                                 : 2h 10mn
Bit rate                                 : 1 900 Kbps
Width                                    : 1 280 pixels
Height                                   : 720 pixels
Display aspect ratio                     : 16:9
Frame rate mode                          : Variable
Frame rate                               : 23.976 fps
Color space                              : YUV
Chroma subsampling                       : 4:2:0
Bit depth                                : 8 bits
Scan type                                : Progressive
Bits/(Pixel*Frame)                       : 0.086
Stream size                              : 1.68 GiB (66%)
Title                                    : MIRCrew
Writing library                          : x264 core 130 r2273
Encoding settings                        : cabac=1 / ref=2 / deblock=1:0:0 / analyse=0x1:0x131 / me=hex / subme=7 / psy=1 / psy_rd=1.00:0.00 / mixed_ref=0 / me_range=16 / chroma_me=1 / trellis=1 / 8x8dct=0 / cqm=0 / deadzone=21,11 / fast_pskip=1 / chroma_qp_offset=-2 / threads=6 / lookahead_threads=1 / sliced_threads=0 / nr=0 / decimate=1 / interlaced=0 / bluray_compat=0 / constrained_intra=0 / bframes=3 / b_pyramid=0 / b_adapt=1 / b_bias=0 / direct=3 / weightb=1 / open_gop=0 / weightp=2 / keyint=230 / keyint_min=23 / scenecut=40 / intra_refresh=0 / rc_lookahead=40 / rc=abr / mbtree=1 / bitrate=1900 / ratetol=1.0 / qcomp=0.60 / qpmin=10 / qpmax=69 / qpstep=4 / vbv_maxrate=24000 / vbv_bufsize=24000 / nal_hrd=none / ip_ratio=1.40 / aq=1:1.00
Language                                 : Italian
Default                                  : Yes
Forced                                   : No
DURATION                                 : 02:10:16.684000000
NUMBER_OF_FRAMES                         : 187413
NUMBER_OF_BYTES                          : 1852284754
_STATISTICS_WRITING_APP                  : mkvmerge v26.0.0 ('In The Game&#39 64-bit
_STATISTICS_WRITING_DATE_UTC             : 2018-11-24 13:29:24
_STATISTICS_TAGS                         : BPS DURATION NUMBER_OF_FRAMES NUMBER_OF_BYTES

Audio #1
ID                                       : 2
Format                                   : AC-3
Format/Info                              : Audio Coding 3
Mode extension                           : CM (complete main)
Codec ID                                 : A_AC3
Duration                                 : 2h 10mn
Bit rate mode                            : Constant
Bit rate                                 : 448 Kbps
Channel(s)                               : 6 channels
Channel positions                        : Front: L C R, Side: L R, LFE
Sampling rate                            : 48.0 KHz
Bit depth                                : 16 bits
Compression mode                         : Lossy
Delay relative to video                  : -5ms
Stream size                              : 418 MiB (16%)
Title                                    : Ita Ac3 5.1
Language                                 : Italian
Default                                  : Yes
Forced                                   : No
DURATION                                 : 02:10:17.664000000
NUMBER_OF_FRAMES                         : 244302
NUMBER_OF_BYTES                          : 437789184
_STATISTICS_WRITING_APP                  : mkvmerge v26.0.0 ('In The Game&#39 64-bit
_STATISTICS_WRITING_DATE_UTC             : 2018-11-24 13:29:24
_STATISTICS_TAGS                         : BPS DURATION NUMBER_OF_FRAMES NUMBER_OF_BYTES

Audio #2
ID                                       : 3
Format                                   : AC-3
Format/Info                              : Audio Coding 3
Mode extension                           : CM (complete main)
Codec ID                                 : A_AC3
Duration                                 : 2h 10mn
Bit rate mode                            : Constant
Bit rate                                 : 448 Kbps
Channel(s)                               : 6 channels
Channel positions                        : Front: L C R, Side: L R, LFE
Sampling rate                            : 48.0 KHz
Bit depth                                : 16 bits
Compression mode                         : Lossy
Delay relative to video                  : -5ms
Stream size                              : 418 MiB (16%)
Title                                    : Eng Ac3 5.1
Language                                 : English
Default                                  : No
Forced                                   : No
DURATION                                 : 02:10:17.664000000
NUMBER_OF_FRAMES                         : 244302
NUMBER_OF_BYTES                          : 437789184
_STATISTICS_WRITING_APP                  : mkvmerge v26.0.0 ('In The Game&#39 64-bit
_STATISTICS_WRITING_DATE_UTC             : 2018-11-24 13:29:24
_STATISTICS_TAGS                         : BPS DURATION NUMBER_OF_FRAMES NUMBER_OF_BYTES

Menu
00:00:00.000                             : :Murder Most Brutal
00:04:51.458                             : :Interrogation: You Find This Man!
00:09:40.955                             : :Trial and Sentencing
00:12:59.779                             : :The Bus to Menard
00:14:51.599                             : :Out of Control
00:16:36.746                             : :Train Coming
00:18:54.342                             : :Just Don't Follow Me
00:20:22.012                             : :Gerard Takes Charge
00:23:10.306                             : :Your Fugitive's Name Is Dr. Richard Kimble
00:25:36.076                             : :Teamwork
00:26:31.632                             : :Every Time I Look in the Mirror, Pal
00:29:48.328                             : :Instant Diagnosis
00:31:27.761                             : :Overheard Pursuit
00:34:23.979                             : :Underground Pursuit
00:36:46.996                             : :I Didn't Kill My Wife
00:38:04.616                             : :Taking the Plunge
00:39:43.798                             : :River Search
00:42:20.913                             : :Bad Dreams; a New Look
00:45:36.776                             : :Raid on Copeland's House
00:48:37.081                             : :I Don't Bargain
00:50:08.214                             : :Back in Chicago
00:53:28.580                             : :Meeting Nichols
00:56:02.693                             : :Cook County Hospital
00:59:21.975                             : :Background Checks
01:02:54.646                             : :House Under Siege
01:07:46.312                             : racticing Medicine
01:13:51.344                             : :An Interest in Prosthetics
01:15:43.414                             : :Visiting Clive Driscoll
01:19:18.295                             : :Face to Face
01:21:55.911                             : :The Luck of the Irish
01:24:44.663                             : :Breaking and Entering
01:29:49.134                             : :A Big Piece of the Puzzle
01:35:28.598                             : :It Was Me There Were After
01:37:01.065                             : :Over This Ground Before
01:40:55.258                             : :Someone with Access
01:44:26.302                             : :Marked Man on the El
01:50:06.183                             : :An Interrupted Speech
01:54:45.295                             : :Mayhem on the Roof
01:58:30.270                             : :Stalkers in the Laundry
02:02:43.773                             : :Time to Stop Running
02:04:07.023                             : :Their Secret
02:05:52.462                             : :End Credits



Info: Per scaricare devi usare un client come uTorrent o Transmission
AnnounceURL
udp://tracker.coppersurfer.tk:6969/announce
Hash 8bdbd9bdd102fb95669a92001d01245ed697abf4
Peers seeds: 39 , leech: 25
Size 2.54 GB
Completato 145x
Aggiunto 08.01.19 - 18:01:37
Uploader   robbyrs
Votazione (Voti: 0)


Condividi questo bittorrent:


html/blog:


bbcode/forum:




Aggiungi Commento


counter