* Dettagli Torrent   globale  | Commenti (0) 


- S.O.S. Fantasmi - Scrooged (1988).720p.H264.italian.english.Ac3.sub.ita.eng-MIRCrew -


Download via torrent:
Categoria bittorrent BDRip
Descrizione
Visitate mircrew-releases

Scrooged - S.O.S. Fantasmi 1988.720p.H264.italian.english.Ac3.sub.ita.eng-MIRCrew


NO FOUND ONLY ORIGINAL RELEASE

My release is always in double track audio italian and Original audio
for select it use VLC or dvd player home
not use wmp

S.O.S. Fantasmi - Scrooged

1988

Quality MIRCrew on HD 720p da  1,7 gb








GENERE: Commedia, fantastico
ANNO: 1988
REGIA: Richard Donner
PAESE: USA
DURATA: 95 Min



Karen Allen, Brian Doyle-Murray, John Forsythe, Bobcat Goldhwait, John Glover, David Johansen, Carol Kane, Mabel King, Robert Mitchum, Bill Murray, John Murray, Michael J. Pollard, Alfre Woodard, Nicholas Phillips



A Natale l'autoritario presidente di un network americano, Frank Cross, mentre sta per mandare in onda uno spettacolo ispirato al racconto di Dickens viene colto da allucinazioni. Si trova al centro di incbi che lo proiettano prima al centro di un Natale passato, poi di un Natale in cui assiste sgomento al .....................



Francis Xavier Cross is a cynical, mean spirited television executive, he treats his loyal assistant with contempt. He just sacked a member of staff on Christmas Eve for simply disagreeing with him, and he's alienated himself from his brother who still insists on inviting Frank to Christmas dinner despite him refusing to go every year









General
Unique ID                                : 200105865363938874425211515802751410720 (0x968AFCE174DCA46F9B653F7494A52220)
Complete name                            : S.O.S. Fantasmi - Scrooged (198.720p.h264.Ita.eng.sub.ita.eng.-MIRCrewS.O.S.Fantasmi - Scrooged(198.720p.h264.Ita.eng.sub.ita.eng.-MIRCrew.mkv
Format                                   : Matroska
Format version                           : Version 2
File size                                : 1.74 GiB
Duration                                 : 1h 40mn
Overall bit rate                         : 2 462 Kbps
Movie name                               : MIRCrew
Encoded date                             : UTC 2018-11-30 00:31:25
Writing application                      : mkvmerge v5.4.0 ('Piper&#39 built on Mar 10 2012 13:34:39
Writing library                          : Lavf54.63.100
COMMENT                                  : mircrew-releases
GENRE                                    : Comedy

Video
ID                                       : 1
Format                                   : AVC
Format/Info                              : Advanced Video Codec
Format profile                           : [email protected]
Format settings, CABAC                   : Yes
Format settings, ReFrames                : 2 frames
Codec ID                                 : V_MPEG4/ISO/AVC
Duration                                 : 1h 40mn
Bit rate                                 : 1 900 Kbps
Width                                    : 1 280 pixels
Height                                   : 720 pixels
Display aspect ratio                     : 16:9
Frame rate mode                          : Variable
Frame rate                               : 23.976 fps
Color space                              : YUV
Chroma subsampling                       : 4:2:0
Bit depth                                : 8 bits
Scan type                                : Progressive
Bits/(Pixel*Frame)                       : 0.086
Stream size                              : 1.30 GiB (75%)
Title                                    : MIRCrew
Writing library                          : x264 core 130 r2273
Encoding settings                        : cabac=1 / ref=2 / deblock=1:0:0 / analyse=0x1:0x131 / me=hex / subme=7 / psy=1 / psy_rd=1.00:0.00 / mixed_ref=0 / me_range=16 / chroma_me=1 / trellis=1 / 8x8dct=0 / cqm=0 / deadzone=21,11 / fast_pskip=1 / chroma_qp_offset=-2 / threads=6 / lookahead_threads=1 / sliced_threads=0 / nr=0 / decimate=1 / interlaced=0 / bluray_compat=0 / constrained_intra=0 / bframes=3 / b_pyramid=0 / b_adapt=1 / b_bias=0 / direct=3 / weightb=1 / open_gop=0 / weightp=2 / keyint=230 / keyint_min=23 / scenecut=40 / intra_refresh=0 / rc_lookahead=40 / rc=abr / mbtree=1 / bitrate=1900 / ratetol=1.0 / qcomp=0.60 / qpmin=10 / qpmax=69 / qpstep=4 / vbv_maxrate=24000 / vbv_bufsize=24000 / nal_hrd=none / ip_ratio=1.40 / aq=1:1.00
Language                                 : Italian
Default                                  : Yes
Forced                                   : No
Encoded date                             : UTC 2018-11-30 00:31:25

Audio #1
ID                                       : 2
Format                                   : AC-3
Format/Info                              : Audio Coding 3
Mode extension                           : CM (complete main)
Codec ID                                 : A_AC3
Duration                                 : 1h 40mn
Bit rate mode                            : Constant
Bit rate                                 : 192 Kbps
Channel(s)                               : 2 channels
Channel positions                        : Front: L R
Sampling rate                            : 48.0 KHz
Bit depth                                : 16 bits
Compression mode                         : Lossy
Delay relative to video                  : -42ms
Stream size                              : 139 MiB (8%)
Title                                    : Ita Ac3 - 2.0
Language                                 : Italian
Default                                  : Yes
Forced                                   : No

Audio #2
ID                                       : 3
Format                                   : AC-3
Format/Info                              : Audio Coding 3
Mode extension                           : CM (complete main)
Codec ID                                 : A_AC3
Duration                                 : 1h 40mn
Bit rate mode                            : Constant
Bit rate                                 : 384 Kbps
Channel(s)                               : 6 channels
Channel positions                        : Front: L C R, Side: L R, LFE
Sampling rate                            : 48.0 KHz
Bit depth                                : 16 bits
Compression mode                         : Lossy
Delay relative to video                  : -42ms
Stream size                              : 277 MiB (16%)
Title                                    : Eng Ac3 - 5.1
Language                                 : English
Default                                  : No
Forced                                   : No

Menu
00:00:00.000                             : :Chapter 1 Yule Love It
00:07:03.507                             : :Chapter 2 Frank's Christmas Spirit
00:16:59.686                             : :Chapter 3 You Are Going to Be Visited By Three Ghosts
00:25:00.876                             : :Chapter 4 Scaring the Dickens Out of People
00:31:44.571                             : :Chapter 5 The Ghost of Christmas Past
00:52:38.825                             : :Chapter 6 Save Yourself
00:58:20.500                             : :Chapter 7 The Ghost of Christmas Present
01:10:50.667                             : :Chapter 8 I Feel Real Weird About Tonight
01:14:38.603                             : :Chapter 9 The Ghost of Christmas Future
01:22:01.004                             : :Chapter 10 I'm Alive
01:24:36.827                             : :Chapter 11 It's Never Too Late
01:33:05.335                             : :Chapter 12 Put a Little Love in Your Heart



Info: Per scaricare devi usare un client come uTorrent o Transmission
AnnounceURL
udp://tracker.coppersurfer.tk:6969/announce
Hash f04302f4dd4244277dd9dd4a35d79e0ca07d375e
Peers seeds: 15 , leech: 8
Size 1.74 GB
Completato 491x
Aggiunto 03.12.18 - 16:12:28
Uploader   robbyrs
Votazione (Voti: 0)


Condividi questo bittorrent:


html/blog:


bbcode/forum:




Aggiungi Commento


counter