* Dettagli Torrent   globale  | Commenti (0) 


- Respiri (2018).720p.H264.italian.Ac3-5.1.sub.NUita-MIRCrew -


Download via torrent:
Categoria bittorrent BDRip
Descrizione
Visitate mircrew-releases

Respiri 2018.720p.H264.italian.Ac3-5.1.sub.ita-MIRCrew


NO FOUND ONLY ORIGINAL RELEASE



My release is always in double track audio italian and Original audio
for select it use VLC or dvd player home
not use wmp

PRESENTI I SOTTOTITOLI ITALIANI PER NON UDENTI

Respiri

2018

Quality MIRCrew on HD 720p da  1,6 gb








GENERE: Thriller
ANNO: 2018
REGIA: Alfredo Fiorillo
PAESE: Italia
DURATA: 87 Min



Alessio Boni, Pino Calabrese, Eva Grimaldi, Milena Vukotic, Lidiya Liberman, Lino Capolicchio, Eleonora Trevisani



Dopo aver sofferto una grave disgrazia, Francesco, un ingegnere di quarant'anni, si trasferisce insieme alla figlia nell'antica villa di famiglia sulle rive del lago d'Iseo. Tra le mura della dimora dimenticata risiede già un ospite misterioso, di cui non si percepisce nient'altro che l'eco lontana di un respiratore. Ma altre strane presenze, decisamente più oscure,.



After an incident, Francesco, with his daughter moves in a sprawling villa on Lake Iseo. Soon they start hearing a respirator to signal them the presence of another entity. But is this entity the only one they need to worry about?  








General
Unique ID                                : 108192529834527387647681568997227869687 (0x51651F905FEA16221CC984786A4BB5F7)
Complete name                            : Respiri (201.720p.h264.ita.sub.NUita-MIRCrewRespiri (201.720p.h264.ita.sub.NUita-MIRCrew.mkv
Format                                   : Matroska
Format version                           : Version 2
File size                                : 1.57 GiB
Duration                                 : 1h 35mn
Overall bit rate                         : 2 350 Kbps
Movie name                               : MIRCrew
Encoded date                             : UTC 2018-10-12 12:25:07
Writing application                      : Lavf54.63.100
Writing library                          : Lavf54.63.100

Video
ID                                       : 1
Format                                   : AVC
Format/Info                              : Advanced Video Codec
Format profile                           : [email protected]
Format settings, CABAC                   : Yes
Format settings, ReFrames                : 2 frames
Codec ID                                 : V_MPEG4/ISO/AVC
Duration                                 : 1h 35mn
Bit rate                                 : 1 900 Kbps
Width                                    : 1 280 pixels
Height                                   : 528 pixels
Display aspect ratio                     : 2.40:1
Frame rate mode                          : Variable
Frame rate                               : 24.000 fps
Color space                              : YUV
Chroma subsampling                       : 4:2:0
Bit depth                                : 8 bits
Scan type                                : Progressive
Bits/(Pixel*Frame)                       : 0.117
Stream size                              : 1.24 GiB (79%)
Writing library                          : x264 core 130 r2273
Encoding settings                        : cabac=1 / ref=2 / deblock=1:0:0 / analyse=0x1:0x131 / me=hex / subme=7 / psy=1 / psy_rd=1.00:0.00 / mixed_ref=0 / me_range=16 / chroma_me=1 / trellis=1 / 8x8dct=0 / cqm=0 / deadzone=21,11 / fast_pskip=1 / chroma_qp_offset=-2 / threads=6 / lookahead_threads=1 / sliced_threads=0 / nr=0 / decimate=1 / interlaced=0 / bluray_compat=0 / constrained_intra=0 / bframes=3 / b_pyramid=0 / b_adapt=1 / b_bias=0 / direct=3 / weightb=1 / open_gop=0 / weightp=2 / keyint=240 / keyint_min=24 / scenecut=40 / intra_refresh=0 / rc_lookahead=40 / rc=abr / mbtree=1 / bitrate=1900 / ratetol=1.0 / qcomp=0.60 / qpmin=10 / qpmax=69 / qpstep=4 / vbv_maxrate=24000 / vbv_bufsize=24000 / nal_hrd=none / ip_ratio=1.40 / aq=1:1.00
Default                                  : Yes
Forced                                   : No
DURATION                                 : 01:35:55.167000000
NUMBER_OF_FRAMES                         : 138124
NUMBER_OF_BYTES                          : 7053832951
_STATISTICS_WRITING_APP                  : mkvmerge v9.7.1 ('Pandemonium&#39 64bit
_STATISTICS_WRITING_DATE_UTC             : 2018-10-07 10:43:07
_STATISTICS_TAGS                         : BPS DURATION NUMBER_OF_FRAMES NUMBER_OF_BYTES

Audio
ID                                       : 2
Format                                   : AC-3
Format/Info                              : Audio Coding 3
Mode extension                           : CM (complete main)
Codec ID                                 : A_AC3
Duration                                 : 1h 35mn
Bit rate mode                            : Constant
Bit rate                                 : 448 Kbps
Channel(s)                               : 6 channels
Channel positions                        : Front: L C R, Side: L R, LFE
Sampling rate                            : 48.0 KHz
Bit depth                                : 16 bits
Compression mode                         : Lossy
Delay relative to video                  : 1mn 5s
Stream size                              : 307 MiB (19%)
Language                                 : Italian
Default                                  : No
Forced                                   : No
DURATION                                 : 01:35:55.968000000
NUMBER_OF_FRAMES                         : 179874
NUMBER_OF_BYTES                          : 460477440
_STATISTICS_WRITING_APP                  : mkvmerge v9.7.1 ('Pandemonium&#39 64bit
_STATISTICS_WRITING_DATE_UTC             : 2018-10-07 10:43:07
_STATISTICS_TAGS                         : BPS DURATION NUMBER_OF_FRAMES NUMBER_OF_BYTES

Menu
00:00:00.000                             : 01)00:00:00:000
00:07:47.833                             : 02)00:07:47:833
00:16:43.208                             : 03)00:16:43:208
00:25:52.500                             : 04)00:25:52:500
00:35:30.958                             : 05)00:35:30:958
00:43:58.208                             : 06)00:43:58:208
00:55:18.708                             : 07)00:55:18:708
01:01:57.791                             : 001:01:57:791
01:09:56.958                             : 09)01:09:56:958
01:18:58.583                             : 10)01:18:58:583
01:26:07.375                             : 11)01:26:07:375
01:31:34.166                             : 12)01:31:34:166



Info: Per scaricare devi usare un client come uTorrent o Transmission
AnnounceURL
udp://tracker.coppersurfer.tk:6969/announce
Hash 0c3bffac8cb7520fc4503add2eb7b43afbf2eaba
Peers seeds: 57 , leech: 10
Size 1.57 GB
Completato 1603x
Aggiunto 03.12.18 - 15:12:11
Uploader   robbyrs
Votazione (Voti: 0)


Condividi questo bittorrent:


html/blog:


bbcode/forum:




Aggiungi Commento


counter