* Dettagli Torrent   globale  | Commenti (0) 


- Lazzaro Felice (2018).720p.H264.italian.Ac3-5.1.sub.NUita.eng-MIRCrew -


Download via torrent:
Categoria bittorrent BDRip
Descrizione
visitate mircrew-releases

Lazzaro Felice 2018.720p.H264.italian.Ac3-5.1.sub.NUita.eng-MIRCrew


NO FOUND ONLY ORIGINAL RELEASE



My release is always in double track audio italian and Original audio
for select it use VLC or dvd player home
not use wmp


ENGLISH SUBTITLE INSIDE

PRESENTI I SOTTOTITOLI ITALIANI PER NON UDENTI


Lazzaro Felice 2018

Quality MIRCrew on HD 720p da  1,9 gb







Riconoscimenti

   2018 - Festival di Cannes
       Prix du scénario
       In competizione per la Palma d'oro
   2018 - Nastro d'argento
       Candidatura per il miglior film
       Candidatura per la migliore attrice non protagonista a Nicoletta Braschi
       Candidatura per la migliore scenografia a Emita Frigato
   2018 - Jerusalem International Film Festival
       Cummings Award Best Feature Film
   2018 - Sitges - Festival internazionale del cinema fantastico della Catalogna
       Premio speciale della giuria
       Carnet Jove Jury Award

Paese di produzione Italia, Svizzera, Francia, Germania
Anno 2018
Durata 130 min
Genere drammatico
Regia Alice Rohrwacher
Sceneggiatura Alice Rohrwacher
Casa di produzione Tempesta, Rai Cinema
Distribuzione (Italia) 01 Distribution
Fotografia Hélène Louvart



Adriano Tardiolo: Lazzaro
Alba Rohrwacher: Antonia adulta
Nicoletta Braschi: marchesa Alfonsina De Luna
Luca Chikovani: Tancredi ragazzo
Sergi López: Ultimo
Natalino Balasso: Nicola
Tommaso Ragno: Tancredi adulto
Agnese Graziani: Antonia bambina
Carlo Massimino: Pippo
Edoardo Montalto: Pippo bambino



Lazzaro è un giovane contadino di 20 anni, estremamente buono e semplice, che ha un forte legame di amicizia con Tancredi, figlio della marchesa Alfonsina De Luna, donna dal carattere forte e duro, nota anche come "la regina delle sigarette". La loro amicizia si rafforza ulteriormente quando Tancredi chiede a Lazzaro di aiutarlo ad organizzare il suo stesso rapimento e...............



This is the tale of a meeting between Lazzaro, a young peasant so good that he is often mistaken for simple-minded, and Tancredi, a young nobleman cursed by his imagination. Life in their ..  









General
Unique ID                                : 146296672377510908439024961748073414826 (0x6E0FB6D670D313AC27B1F329F0DF80AA)
Complete name                            : Lazzaro Felice (201.720p.ita.sub.NUita.eng-MIRCrew\Lazzaro Felice (201.720p.ita.sub.NUita.eng-MIRCrew.mkv
Format                                   : Matroska
Format version                           : Version 2
File size                                : 1.90 GiB
Duration                                 : 2h 7mn
Overall bit rate                         : 2 129 Kbps
Movie name                               : MIRCrew
Encoded date                             : UTC 2018-09-21 13:47:27
Writing application                      : Lavf54.63.100
Writing library                          : Lavf54.63.100

Video
ID                                       : 1
Format                                   : AVC
Format/Info                              : Advanced Video Codec
Format profile                           : [email protected]
Format settings, CABAC                   : Yes
Format settings, ReFrames                : 2 frames
Codec ID                                 : V_MPEG4/ISO/AVC
Duration                                 : 2h 7mn
Bit rate                                 : 1 750 Kbps
Width                                    : 1 276 pixels
Height                                   : 720 pixels
Display aspect ratio                     : 1.626
Frame rate mode                          : Variable
Frame rate                               : 23.976 fps
Color space                              : YUV
Chroma subsampling                       : 4:2:0
Bit depth                                : 8 bits
Scan type                                : Progressive
Bits/(Pixel*Frame)                       : 0.079
Stream size                              : 1.52 GiB (80%)
Writing library                          : x264 core 130 r2273
Encoding settings                        : cabac=1 / ref=2 / deblock=1:0:0 / analyse=0x1:0x131 / me=hex / subme=7 / psy=1 / psy_rd=1.00:0.00 / mixed_ref=0 / me_range=16 / chroma_me=1 / trellis=1 / 8x8dct=0 / cqm=0 / deadzone=21,11 / fast_pskip=1 / chroma_qp_offset=-2 / threads=3 / lookahead_threads=1 / sliced_threads=0 / nr=0 / decimate=1 / interlaced=0 / bluray_compat=0 / constrained_intra=0 / bframes=3 / b_pyramid=0 / b_adapt=1 / b_bias=0 / direct=3 / weightb=1 / open_gop=0 / weightp=2 / keyint=230 / keyint_min=23 / scenecut=40 / intra_refresh=0 / rc_lookahead=40 / rc=abr / mbtree=1 / bitrate=1750 / ratetol=1.0 / qcomp=0.60 / qpmin=10 / qpmax=69 / qpstep=4 / vbv_maxrate=24000 / vbv_bufsize=24000 / nal_hrd=none / ip_ratio=1.40 / aq=1:1.00
Default                                  : Yes
Forced                                   : No
DURATION                                 : 02:07:37.900000000
NUMBER_OF_FRAMES                         : 183606
NUMBER_OF_BYTES                          : 11314654617
_STATISTICS_WRITING_APP                  : mkvmerge v9.7.1 ('Pandemonium') 64bit
_STATISTICS_WRITING_DATE_UTC             : 2018-09-14 19:42:35
_STATISTICS_TAGS                         : BPS DURATION NUMBER_OF_FRAMES NUMBER_OF_BYTES

Audio
ID                                       : 2
Format                                   : AC-3
Format/Info                              : Audio Coding 3
Mode extension                           : CM (complete main)
Codec ID                                 : A_AC3
Duration                                 : 2h 7mn
Bit rate mode                            : Constant
Bit rate                                 : 384 Kbps
Channel(s)                               : 6 channels
Channel positions                        : Front: L C R, Side: L R, LFE
Sampling rate                            : 48.0 KHz
Bit depth                                : 16 bits
Compression mode                         : Lossy
Delay relative to video                  : 1mn 5s
Stream size                              : 351 MiB (18%)
Language                                 : Italian
Default                                  : Yes
Forced                                   : No
DURATION                                 : 02:07:38.699000000
NUMBER_OF_FRAMES                         : 718003
NUMBER_OF_BYTES                          : 1444622104
_STATISTICS_WRITING_APP                  : mkvmerge v9.7.1 ('Pandemonium') 64bit
_STATISTICS_WRITING_DATE_UTC             : 2018-09-14 19:42:35
_STATISTICS_TAGS                         : BPS DURATION NUMBER_OF_FRAMES NUMBER_OF_BYTES

Menu
00:00:00.000                             : 01)00:00:00:000
00:09:30.152                             : 02)00:09:30:152
00:21:16.149                             : 03)00:21:16:149
00:28:04.557                             : 04)00:28:04:557
00:49:21.959                             : 05)00:49:21:959
00:57:57.056                             : 06)00:57:57:056
01:05:42.146                             : 07)01:05:42:146
01:16:18.115                             : 001:16:18:115
01:23:31.131                             : 09)01:23:31:131
01:34:02.970                             : 10)01:34:02:970
01:44:18.961                             : 11)01:44:18:961
01:51:46.616                             : 12)01:51:46:616





Info: Per scaricare devi usare un client come uTorrent o Transmission
AnnounceURL
udp://tracker.coppersurfer.tk:6969/announce
Hash 9efde3e211974d5946814daaf06e948c9cc409df
Peers seeds: 81 , leech: 28
Size 1.90 GB
Completato 659x
Aggiunto 19.10.18 - 16:10:45
Uploader   robbyrs
Votazione (Voti: 0)


Condividi questo bittorrent:


html/blog:


bbcode/forum:




Aggiungi Commento


counter