Loading...
 * Dettagli Torrent   globale  | Commenti (0) 


- Il dolce corpo di Deborah (1968).H264.italian.english.Ac3-sub.eng-MIRCrew -


Download via torrent:
Categoria bittorrent BDRip
Descrizione
Il dolce corpo di Deborah - The Sweet Body of Deborah 1968.H264.italian.english.Ac3-sub.eng-MIRCrew



NO FOUND ONLY ORIGINAL RELEASE



My release is always in double track audio italian and Original audio
for select it use VLC or dvd player home
not use wmp

Il dolce corpo di Deborah

The Sweet Body of Deborah

1968









Titolo originale Il dolce corpo di Deborah
Lingua originale italiano
Paese di produzione Italia, Francia
Anno 1968
Durata 95 min
Rapporto 2,35 : 1
Genere drammatico, orrore, giallo, thriller
Regia Romolo Guerrieri
Soggetto Ernesto Gastaldi, Luciano Martino
Sceneggiatura Ernesto Gastaldi



   Carroll Baker: Deborah
   George Hilton: Robert
   Jean Sorel: Marcel
   Evelyn Stewart: Suzanne Boileau
   Luigi Pistilli: Philip
   Michel Bardinet: commissario di polizia
   Valentino Macchi: garagista
   Mirella Pamphili: telefonista
   Giuseppe Ravenna: maitre d'albergo



In un viaggio di nozze, due giovani sono turbati da un vecchio episodio che riguarda la vita di lui. La ragazza cerca pace nei barbiturici, a lui non resta che uccidere un vecchio amico che gli rinfaccia il passato. Ma i soldi di un'assicurazione sulla vita e un nuovo amore della moglie determineranno...........................



A young newlywed couple from America returns to Geneva to visit Marcel's home town. Once there he is informed of his former lover's suicide and in turn is subjected to threats that accuse ...







[spoiler]
General
Unique ID                                : 249619819327655140883112253536607221460 (0xBBCB074A2CB9E0519B8C21D352AD36D4)
Complete name                            : Il dolce corpo di Deborah - The Sweet Body of Deborah 1968.H264.ita.eng.sub.eng-MIRCrew\Il dolce corpo di Deborah - The Sweet Body of Deborah 1968.H264.ita.eng.sub.eng-MIRCrew.mkv
Format                                   : Matroska
Format version                           : Version 2
File size                                : 1.13 GiB
Duration                                 : 1h 36mn
Overall bit rate                         : 1 686 Kbps
Movie name                               : MIRCrew
Encoded date                             : UTC 2017-03-04 20:09:17
Writing application                      : mkvmerge v5.4.0 ('Piper') built on Mar 10 2012 13:34:39
Writing library                          : Lavf54.63.100
COPYRIGHT                                : robbyrs

Video
ID                                       : 1
Format                                   : AVC
Format/Info                              : Advanced Video Codec
Format profile                           : [email protected]
Format settings, CABAC                   : Yes
Format settings, ReFrames                : 2 frames
Codec ID                                 : V_MPEG4/ISO/AVC
Duration                                 : 1h 36mn
Bit rate                                 : 1 300 Kbps
Width                                    : 720 pixels
Height                                   : 304 pixels
Display aspect ratio                     : 2.35:1
Original display aspect ratio            : 2.35:1
Frame rate mode                          : Variable
Frame rate                               : 23.976 fps
Color space                              : YUV
Chroma subsampling                       : 4:2:0
Bit depth                                : 8 bits
Scan type                                : Progressive
Bits/(Pixel*Frame)                       : 0.248
Stream size                              : 871 MiB (75%)
Writing library                          : x264 core 130 r2273
Encoding settings                        : cabac=1 / ref=2 / deblock=1:0:0 / analyse=0x1:0x131 / me=hex / subme=7 / psy=1 / psy_rd=1.00:0.00 / mixed_ref=0 / me_range=16 / chroma_me=1 / trellis=1 / 8x8dct=0 / cqm=0 / deadzone=21,11 / fast_pskip=1 / chroma_qp_offset=-2 / threads=3 / lookahead_threads=1 / sliced_threads=0 / nr=0 / decimate=1 / interlaced=0 / bluray_compat=0 / constrained_intra=0 / bframes=3 / b_pyramid=0 / b_adapt=1 / b_bias=0 / direct=3 / weightb=1 / open_gop=0 / weightp=2 / keyint=230 / keyint_min=23 / scenecut=40 / intra_refresh=0 / rc_lookahead=40 / rc=abr / mbtree=1 / bitrate=1300 / ratetol=1.0 / qcomp=0.60 / qpmin=10 / qpmax=69 / qpstep=4 / vbv_maxrate=24000 / vbv_bufsize=24000 / nal_hrd=none / ip_ratio=1.40 / aq=1:1.00
Language                                 : Italian
Default                                  : Yes
Forced                                   : No
DURATION                                 : 01:36:03.341000000
NUMBER_OF_FRAMES                         : 138182
NUMBER_OF_BYTES                          : 2108172100
_STATISTICS_WRITING_APP                  : mkvmerge v9.9.0 ('Pick Up') 64bit
_STATISTICS_WRITING_DATE_UTC             : 2017-03-02 05:58:57
_STATISTICS_TAGS                         : BPS DURATION NUMBER_OF_FRAMES NUMBER_OF_BYTES

Audio #1
ID                                       : 2
Format                                   : AC-3
Format/Info                              : Audio Coding 3
Mode extension                           : CM (complete main)
Codec ID                                 : A_AC3
Duration                                 : 1h 36mn
Bit rate mode                            : Constant
Bit rate                                 : 192 Kbps
Channel(s)                               : 2 channels
Channel positions                        : Front: L R
Sampling rate                            : 48.0 KHz
Bit depth                                : 16 bits
Compression mode                         : Lossy
Delay relative to video                  : -5ms
Stream size                              : 132 MiB (11%)
Title                                    : Ita Ac3
Language                                 : Italian
Default                                  : No
Forced                                   : No
DURATION                                 : 01:36:03.296000000
NUMBER_OF_FRAMES                         : 180103
NUMBER_OF_BYTES                          : 161372288
_STATISTICS_WRITING_APP                  : mkvmerge v9.9.0 ('Pick Up') 64bit
_STATISTICS_WRITING_DATE_UTC             : 2017-03-02 05:58:57
_STATISTICS_TAGS                         : BPS DURATION NUMBER_OF_FRAMES NUMBER_OF_BYTES

Audio #2
ID                                       : 3
Format                                   : AC-3
Format/Info                              : Audio Coding 3
Mode extension                           : CM (complete main)
Codec ID                                 : A_AC3
Duration                                 : 1h 36mn
Bit rate mode                            : Constant
Bit rate                                 : 192 Kbps
Channel(s)                               : 2 channels
Channel positions                        : Front: L R
Sampling rate                            : 48.0 KHz
Bit depth                                : 16 bits
Compression mode                         : Lossy
Delay relative to video                  : -5ms
Stream size                              : 132 MiB (11%)
Title                                    : eng Ac3
Language                                 : English
Default                                  : No
Forced                                   : No
DURATION                                 : 01:36:03.328000000
NUMBER_OF_FRAMES                         : 180104
NUMBER_OF_BYTES                          : 161373184
_STATISTICS_WRITING_APP                  : mkvmerge v9.9.0 ('Pick Up') 64bit
_STATISTICS_WRITING_DATE_UTC             : 2017-03-02 05:58:57
_STATISTICS_TAGS                         : BPS DURATION NUMBER_OF_FRAMES NUMBER_OF_BYTES

Menu
00:00:00.000                             : 01)00:00:00:000
00:15:53.035                             : 02)00:15:53:035
00:32:19.062                             : 03)00:32:19:062
00:45:41.280                             : 04)00:45:41:280
01:01:12.419                             : 05)01:01:12:418
01:19:16.877                             : 06)01:19:16:835



[/spoiler]



Info: Per scaricare devi usare un client come uTorrent o Transmission
AnnounceURL
udp://tracker.coppersurfer.tk:6969/announce
Hash 11568e16b8a0349a1b15cce4fe0ca4ac173e05a6
Peers seeds: 6 , leech: 2
Size 1.13 GB
Completato 391x
Aggiunto 16.09.18 - 22:09:19
Uploader   robbyrs
Votazione (Voti: 0)


Condividi questo bittorrent:


html/blog:


bbcode/forum:




Aggiungi Commento


counter