* Dettagli Torrent   globale  | Commenti (0) 


- Quantico.3x03.La.Porta.DellInferno.ITA.ENG.1080p.AMZN.WEB-DLMux.H.264-Morpheus.mkv -


Download via torrent:
Categoria bittorrent SerieTv
Descrizione
[center]

GIUSEPPEiCV & LITTLELINX
HANNO IL PIACERE DI PRESENTARE


STAGIONE 3
WEBMUX 1080p



.: Dati Serie :.


Nazione: Stati Uniti d'America
Anno: 2018
Genere: drammatico, thriller, spionaggio
Stagioni 3
Episodi: 13
Durata: 45 min circa
Lingua: ITA - ENG
Cast:
• Priyanka Chopra: Alex Parrish
• Josh Hopkins: Liam O'Connor
• Jake McLaughlin: Ryan Booth
• Aunjanue Ellis: Miranda Shaw
• Graham Rogers: Caleb Haas
• Yasmine Al Massri: Nimah e Raina Amin
• Johanna Braddy: Shelby Wyatt
• Tate Ellington: Simon Asher
• Anabelle Acosta: Natalie Vasquez
• Russell Tovey: Harry Doyle
• Pearl Thusi: Dayana Mampasi
• Blair Underwood: Owen Hall
• Marlee Matlin: Jocelyn Turner
• Alan Powell:Mike McQuigg

A look at the lives of young FBI recruits training at the Quantico base in Virginia when one of them is suspected of being a sleeper terrorist.

Sono passati tre anni da quando l'eroina americana Alex Parrish ha dovuto attraversare le pericolose acque della Central Intelligence Agency, mettendo la sua vita in pericolo per il suo paese.

Alex ha vissuto una vita pacifica e anonima da qualche parte in Italia, fino a quando è costretta ad abbandonare questa esistenza idilliaca per aiutare Ryan a salvare Shelby da un famigerato trafficante d'armi noto come The Widow, che la tiene in ostaggio. In cambio della liberazione dell'agente dell'FBI, l'uomo “spaventoso e brutale" richiede un qualcosa che solo Alex può fornire.

Ryan e Alex, per salvare la loro amica e sconfiggere il cattivo, chiedono rinforzi ad Harry e Owen. Quest'ultimo, per sostenere la causa, porta con se anche l'ex agente Jocelyn Turner, un uomo che ha un passato oscuro con The Widow.

Un futuro completamente nuovo attende questa squadra.


[center].: Screenshot :.



.: Caratteristiche Tecniche :.[/center]
[spoiler]
Quantico.3x01.Il.Codice.Coscienza.ITA.ENG.1080p.AMZN.WEB-DLMux.H.264-Morpheus.mkv
Format                                   : Matroska
Format version                           : Version 4 / Version 2
File size                                : 2.82 GiB
Duration                                 : 41mn 16s
Overall bit rate mode                    : Variable
Overall bit rate                         : 9 766 Kbps
Encoded date                             : UTC 2018-05-08 20:51:04
Writing application                      : mkvmerge v7.6.0 ('Garden of Dreams') 64bit built on Feb  8 2015 15:12:28
Writing library                          : libebml v1.3.1 + libmatroska v1.4.2
DURATION                                 : 00:41:16.896000000
NUMBER_OF_FRAMES                         : 77403
NUMBER_OF_BYTES                          : 118891008
_STATISTICS_WRITING_APP                  : mkvmerge v7.6.0 ('Garden of Dreams') 64bit built on Feb  8 2015 15:12:28
_STATISTICS_WRITING_DATE_UTC             : 2018-05-08 20:51:04
_STATISTICS_TAGS                         : BPS DURATION NUMBER_OF_FRAMES NUMBER_OF_BYTES

Video
ID                                       : 1
Format                                   : AVC
Format/Info                              : Advanced Video Codec
Format profile                           : [email protected]
Format settings, CABAC                   : Yes
Format settings, ReFrames                : 4 frames
Codec ID                                 : V_MPEG4/ISO/AVC
Duration                                 : 41mn 16s
Bit rate mode                            : Variable
Bit rate                                 : 8 804 Kbps
Maximum bit rate                         : 15.0 Mbps
Width                                    : 1 920 pixels
Height                                   : 1 080 pixels
Display aspect ratio                     : 16:9
Frame rate                               : 25.000 fps
Original frame rate                      : 23.976 fps
Color space                              : YUV
Chroma subsampling                       : 4:2:0
Bit depth                                : 8 bits
Scan type                                : Progressive
Bits/(Pixel*Frame)                       : 0.170
Stream size                              : 2.54 GiB (90%)
Default                                  : Yes
Forced                                   : No
Color primaries                          : BT.709-5, BT.1361, IEC 61966-2-4, SMPTE RP177
Transfer characteristics                 : BT.709-5, BT.1361
Matrix coefficients                      : BT.709-5, BT.1361, IEC 61966-2-4 709, SMPTE RP177

Audio #1
ID                                       : 2
Format                                   : AC-3
Format/Info                              : Audio Coding 3
Mode extension                           : CM (complete main)
Codec ID                                 : A_AC3
Duration                                 : 41mn 16s
Bit rate mode                            : Constant
Bit rate                                 : 384 Kbps
Channel(s)                               : 2 channels
Channel positions                        : Front: L R
Sampling rate                            : 48.0 KHz
Bit depth                                : 16 bits
Compression mode                         : Lossy
Stream size                              : 113 MiB (4%)
Title                                    : ITA
Language                                 : Italian
Default                                  : Yes
Forced                                   : Yes

Audio #2
ID                                       : 3
Format                                   : AC-3
Format/Info                              : Audio Coding 3
Mode extension                           : CM (complete main)
Codec ID                                 : A_AC3
Duration                                 : 41mn 16s
Bit rate mode                            : Constant
Bit rate                                 : 384 Kbps
Channel(s)                               : 6 channels
Channel positions                        : Front: L C R, Side: L R, LFE
Sampling rate                            : 48.0 KHz
Bit depth                                : 16 bits
Compression mode                         : Lossy
Stream size                              : 113 MiB (4%)
Title                                    : ENG
Language                                 : English
Default                                  : No
Forced                                   : No

Text #1
ID                                       : 4
Format                                   : UTF-8
Codec ID                                 : S_TEXT/UTF8
Codec ID/Info                            : UTF-8 Plain Text
Language                                 : English
Default                                  : No
Forced                                   : No

Text #2
ID                                       : 5
Format                                   : UTF-8
Codec ID                                 : S_TEXT/UTF8
Codec ID/Info                            : UTF-8 Plain Text
Title                                    : SDH
Language                                 : English
Default                                  : No
Forced                                   : No


[/spoiler]

[center].: Ringraziamenti :.





Info: Per scaricare devi usare un client come uTorrent o Transmission
AnnounceURL
http://tracker.tntvillage.scambioetico.org:2710/announce
Hash 00c98f6aedf0080dab2b812dd6093924555bfaeb
Peers seeds: 7 , leech: 1
Size 3.25 GB
Completato 2853x
Aggiunto 16.08.18 - 13:08:10
Uploader   ppb1
Votazione (Voti: 0)


Condividi questo bittorrent:


html/blog:


bbcode/forum:




Aggiungi Commento


counter