* Dettagli Torrent   globale  | Commenti (0) 


- Un uragano all improvviso (2017).720p.H264.italian.English.Ac3-5.1.sub.ita.MIRCrew -


Download via torrent:
Categoria bittorrent BDRip
Descrizione
The Layover - Un uragano all improvviso (2017).720p.H264.italian.English.Ac3-5.1.sub.ita.MIRCrew



NO FOUND ONLY ORIGINAL RELEASE



My release is always in double track audio italian and Original audio
for select it use VLC or dvd player home
not use wmp

Un uragano all improvviso

The Layover


(2017)

Quality MIRCrew on HD 720p da  1,8 gb








GENERE: Commedia
ANNO: 2017
REGIA: William H. Macy
PAESE: USA



Alexandra Daddario, Kate Upton, William H. Macy, Kal Penn, Rob Corddry, Molly Shannon, Matt Barr, Roark Critchlow, Carrie Genzel



Kate (Daddario) e Meg (Upton) hanno appena perso il lavoro. Entrambe hanno bisogno di una vacanza per allontanarsi dai problemi reali e quotidiani, così decidono di partire per la verdeggiante Florida in cerca di relax. Ma quando l'aereo su cui viaggiano viene dirottato a causa dell'arrivo di un uragano, le due amiche del cuore sbarcano con gli altri passeggeri a St. Louis per una sosta prolungata.



Two friends on a road trip compete for the affections of a handsome man when their flight is redirected due to a hurricane.









[spoiler]
General
Unique ID                                : 246453926051988939691669269412733874250 (0xB9694CB335D6CBF086053D51A0D5704A)
Complete name                            : Un uragano all improvviso - The Layover (2017).720p.h264.ita.eng.sub.ita - MIRCrew\Un uragano all improvviso - The Layover (2017).720p.h264.ita.eng.sub.ita - MIRCrew.ita (1).mkv
Format                                   : Matroska
Format version                           : Version 2
File size                                : 1.69 GiB
Duration                                 : 1h 27mn
Overall bit rate                         : 2 751 Kbps
Movie name                               : MIRCrew
Encoded date                             : UTC 2018-04-28 00:15:56
Writing application                      : mkvmerge v5.4.0 ('Piper') built on Mar 10 2012 13:34:39
Writing library                          : Lavf54.63.100
COPYRIGHT                                : robbyrs - Il Corsaronero

Video
ID                                       : 1
Format                                   : AVC
Format/Info                              : Advanced Video Codec
Format profile                           : [email protected]
Format settings, CABAC                   : Yes
Format settings, ReFrames                : 2 frames
Codec ID                                 : V_MPEG4/ISO/AVC
Duration                                 : 1h 27mn
Bit rate                                 : 1 800 Kbps
Nominal bit rate                         : 1 900 Kbps
Width                                    : 1 280 pixels
Height                                   : 528 pixels
Display aspect ratio                     : 2.40:1
Frame rate mode                          : Variable
Frame rate                               : 23.976 fps
Color space                              : YUV
Chroma subsampling                       : 4:2:0
Bit depth                                : 8 bits
Scan type                                : Progressive
Bits/(Pixel*Frame)                       : 0.111
Stream size                              : 1.10 GiB (65%)
Writing library                          : x264 core 130 r2273
Encoding settings                        : cabac=1 / ref=2 / deblock=1:0:0 / analyse=0x1:0x131 / me=hex / subme=7 / psy=1 / psy_rd=1.00:0.00 / mixed_ref=0 / me_range=16 / chroma_me=1 / trellis=1 / 8x8dct=0 / cqm=0 / deadzone=21,11 / fast_pskip=1 / chroma_qp_offset=-2 / threads=3 / lookahead_threads=1 / sliced_threads=0 / nr=0 / decimate=1 / interlaced=0 / bluray_compat=0 / constrained_intra=0 / bframes=3 / b_pyramid=0 / b_adapt=1 / b_bias=0 / direct=3 / weightb=1 / open_gop=0 / weightp=2 / keyint=230 / keyint_min=23 / scenecut=40 / intra_refresh=0 / rc_lookahead=40 / rc=abr / mbtree=1 / bitrate=1900 / ratetol=1.0 / qcomp=0.60 / qpmin=10 / qpmax=69 / qpstep=4 / vbv_maxrate=24000 / vbv_bufsize=24000 / nal_hrd=none / ip_ratio=1.40 / aq=1:1.00
Language                                 : Italian
Default                                  : Yes
Forced                                   : No
DURATION                                 : 01:27:47.304000000
NUMBER_OF_FRAMES                         : 126289
NUMBER_OF_BYTES                          : 7214418192
_STATISTICS_WRITING_APP                  : mkvmerge v7.4.0 ('Circles') 32bit built on Dec 12 2014 12:10:09
_STATISTICS_WRITING_DATE_UTC             : 2018-04-28 00:15:56
_STATISTICS_TAGS                         : BPS DURATION NUMBER_OF_FRAMES NUMBER_OF_BYTES

Audio #1
ID                                       : 2
Format                                   : AC-3
Format/Info                              : Audio Coding 3
Mode extension                           : CM (complete main)
Codec ID                                 : A_AC3
Duration                                 : 1h 27mn
Bit rate mode                            : Constant
Bit rate                                 : 448 Kbps
Channel(s)                               : 6 channels
Channel positions                        : Front: L C R, Side: L R, LFE
Sampling rate                            : 48.0 KHz
Bit depth                                : 16 bits
Compression mode                         : Lossy
Delay relative to video                  : -5ms
Stream size                              : 281 MiB (16%)
Title                                    : Ita Ac3 5.1
Language                                 : Italian
Default                                  : Yes
Forced                                   : No
DURATION                                 : 01:27:47.328000000
NUMBER_OF_FRAMES                         : 164604
NUMBER_OF_BYTES                          : 294970368
_STATISTICS_WRITING_APP                  : mkvmerge v7.4.0 ('Circles') 32bit built on Dec 12 2014 12:10:09
_STATISTICS_WRITING_DATE_UTC             : 2018-04-28 00:15:56
_STATISTICS_TAGS                         : BPS DURATION NUMBER_OF_FRAMES NUMBER_OF_BYTES

Audio #2
ID                                       : 3
Format                                   : AC-3
Format/Info                              : Audio Coding 3
Mode extension                           : CM (complete main)
Codec ID                                 : A_AC3
Duration                                 : 1h 27mn
Bit rate mode                            : Constant
Bit rate                                 : 448 Kbps
Channel(s)                               : 6 channels
Channel positions                        : Front: L C R, Side: L R, LFE
Sampling rate                            : 48.0 KHz
Bit depth                                : 16 bits
Compression mode                         : Lossy
Delay relative to video                  : -5ms
Stream size                              : 281 MiB (16%)
Title                                    : Eng Ac3 5.1
Language                                 : English
Default                                  : No
Forced                                   : No
DURATION                                 : 01:27:41.248000000
NUMBER_OF_FRAMES                         : 164414
NUMBER_OF_BYTES                          : 420899840
_STATISTICS_WRITING_APP                  : mkvmerge v7.4.0 ('Circles') 32bit built on Dec 12 2014 12:10:09
_STATISTICS_WRITING_DATE_UTC             : 2018-04-28 00:15:56
_STATISTICS_TAGS                         : BPS DURATION NUMBER_OF_FRAMES NUMBER_OF_BYTES



[/spoiler]



Info: Per scaricare devi usare un client come uTorrent o Transmission
AnnounceURL
udp://tracker.coppersurfer.tk:6969/announce
Hash fbd14e09431ae82ff5538b34e8d90eeaa02319bf
Peers seeds: 147 , leech: 63
Size 1.69 GB
Completato 867x
Aggiunto 14.05.18 - 18:05:36
Uploader   robbyrs
Votazione (Voti: 1)


Condividi questo bittorrent:


html/blog:


bbcode/forum:




Aggiungi Commento


counter