* Dettagli Torrent   globale  | Commenti (0) 


- The Disaster Artist (2017).H264.italian.english.Ac3-5.1.sub.ita.eng.MIRCrew -


Download via torrent:
Categoria bittorrent BDRip
Descrizione
The Disaster Artist (2017).H264.italian.english.Ac3-5.1.sub.ita.eng.MIRCrew


NO FOUND ONLY ORIGINAL RELEASE




My release is always in double track audio italian and Original audio
for select it use VLC or dvd player home
not use wmp

The Disaster Artist

(2017)








GENERE: Biografico, Commedia, Drammatico
ANNO: 2017
REGIA: James Franco

PAESE: USA
DURATA: 104 Min



James Franco, Dave Franco, Seth Rogen, Zoey Deutch, Alison Brie, Kristen Bell, Lizzy Caplan, Zac Efron, Bryan Cranston, Sharon Stone, J.J. Abrams



James Franco trasforma la tragicomica storia vera dell'aspirante regista e famoso outsider di Hollywood, Tommy Wiseau - artista la cui passione era genuina tanto quanto discutibili erano i suoi metodi - nella celebrazione dell'amicizia, dell'espressione artistica e dell'inseguimento dei sogni contro ogni pronostico..



When Greg Sestero, an aspiring film actor, meets the weird and mysterious Tommy Wiseau in an acting class, they form a unique friendship and travel to Hollywood to make their dreams come true.












[spoiler]
General
Unique ID                                : 195764501282228284302089594982662791984 (0x9346DF1B10F3905BB269DACE20BDE330)
Complete name                            : The Disaster Artist (2017).H264.ita.eng.sub.ita.eng - MIRCrew\The Disaster Artist (2017).H264.ita.eng.sub.ita.eng - MIRCrew.mkv
Format                                   : Matroska
Format version                           : Version 2
File size                                : 1.59 GiB
Duration                                 : 1h 43mn
Overall bit rate                         : 2 193 Kbps
Movie name                               : MIRCrew
Encoded date                             : UTC 2018-05-08 09:05:03
Writing application                      : mkvmerge v5.4.0 ('Piper') built on Mar 10 2012 13:34:39
Writing library                          : Lavf54.63.100

Video
ID                                       : 1
Format                                   : AVC
Format/Info                              : Advanced Video Codec
Format profile                           : [email protected]
Format settings, CABAC                   : Yes
Format settings, ReFrames                : 2 frames
Codec ID                                 : V_MPEG4/ISO/AVC
Duration                                 : 1h 43mn
Bit rate                                 : 1 300 Kbps
Width                                    : 720 pixels
Height                                   : 300 pixels
Display aspect ratio                     : 2.40:1
Frame rate mode                          : Variable
Frame rate                               : 23.976 fps
Color space                              : YUV
Chroma subsampling                       : 4:2:0
Bit depth                                : 8 bits
Scan type                                : Progressive
Bits/(Pixel*Frame)                       : 0.251
Stream size                              : 928 MiB (57%)
Writing library                          : x264 core 130 r2273
Encoding settings                        : cabac=1 / ref=2 / deblock=1:0:0 / analyse=0x1:0x131 / me=hex / subme=7 / psy=1 / psy_rd=1.00:0.00 / mixed_ref=0 / me_range=16 / chroma_me=1 / trellis=1 / 8x8dct=0 / cqm=0 / deadzone=21,11 / fast_pskip=1 / chroma_qp_offset=-2 / threads=3 / lookahead_threads=1 / sliced_threads=0 / nr=0 / decimate=1 / interlaced=0 / bluray_compat=0 / constrained_intra=0 / bframes=3 / b_pyramid=0 / b_adapt=1 / b_bias=0 / direct=3 / weightb=1 / open_gop=0 / weightp=2 / keyint=230 / keyint_min=23 / scenecut=40 / intra_refresh=0 / rc_lookahead=40 / rc=abr / mbtree=1 / bitrate=1300 / ratetol=1.0 / qcomp=0.60 / qpmin=10 / qpmax=69 / qpstep=4 / vbv_maxrate=24000 / vbv_bufsize=24000 / nal_hrd=none / ip_ratio=1.40 / aq=1:1.00
Language                                 : Italian
Default                                  : Yes
Forced                                   : No
DURATION                                 : 01:43:30.454000000
NUMBER_OF_FRAMES                         : 148902
NUMBER_OF_BYTES                          : 7632376012
_STATISTICS_WRITING_APP                  : mkvmerge v9.7.1 ('Pandemonium') 64bit
_STATISTICS_WRITING_DATE_UTC             : 2018-04-27 07:45:49
_STATISTICS_TAGS                         : BPS DURATION NUMBER_OF_FRAMES NUMBER_OF_BYTES

Audio #1
ID                                       : 2
Format                                   : AC-3
Format/Info                              : Audio Coding 3
Mode extension                           : CM (complete main)
Codec ID                                 : A_AC3
Duration                                 : 1h 43mn
Bit rate mode                            : Constant
Bit rate                                 : 448 Kbps
Channel(s)                               : 6 channels
Channel positions                        : Front: L C R, Side: L R, LFE
Sampling rate                            : 48.0 KHz
Bit depth                                : 16 bits
Compression mode                         : Lossy
Delay relative to video                  : -5ms
Stream size                              : 332 MiB (20%)
Title                                    : Ita Ac3 5.1
Language                                 : Italian
Default                                  : Yes
Forced                                   : No
DURATION                                 : 01:43:31.424000000
NUMBER_OF_FRAMES                         : 194107
NUMBER_OF_BYTES                          : 496913920
_STATISTICS_WRITING_APP                  : mkvmerge v9.7.1 ('Pandemonium') 64bit
_STATISTICS_WRITING_DATE_UTC             : 2018-04-27 07:45:49
_STATISTICS_TAGS                         : BPS DURATION NUMBER_OF_FRAMES NUMBER_OF_BYTES

Audio #2
ID                                       : 3
Format                                   : AC-3
Format/Info                              : Audio Coding 3
Mode extension                           : CM (complete main)
Codec ID                                 : A_AC3
Duration                                 : 1h 43mn
Bit rate mode                            : Constant
Bit rate                                 : 448 Kbps
Channel(s)                               : 6 channels
Channel positions                        : Front: L C R, Side: L R, LFE
Sampling rate                            : 48.0 KHz
Bit depth                                : 16 bits
Compression mode                         : Lossy
Delay relative to video                  : -5ms
Stream size                              : 332 MiB (20%)
Title                                    : Eng Ac3 5.1
Language                                 : English
Default                                  : No
Forced                                   : No
DURATION                                 : 01:43:31.456000000
NUMBER_OF_FRAMES                         : 582324
NUMBER_OF_BYTES                          : 1171635956
_STATISTICS_WRITING_APP                  : mkvmerge v9.7.1 ('Pandemonium') 64bit
_STATISTICS_WRITING_DATE_UTC             : 2018-04-27 07:45:49
_STATISTICS_TAGS                         : BPS DURATION NUMBER_OF_FRAMES NUMBER_OF_BYTES

Menu
00:00:00.000                             : 01)00:00:00:000
00:05:33.666                             : 02)00:05:33:666
00:13:48.953                             : 03)00:13:48:953
00:20:12.294                             : 04)00:20:12:294
00:24:21.835                             : 05)00:24:21:835
00:30:42.757                             : 06)00:30:42:757
00:36:59.508                             : 07)00:36:59:508
00:43:10.713                             : 000:43:10:713
00:49:21.375                             : 09)00:49:21:375
00:56:43.942                             : 10)00:56:43:942
01:02:20.111                             : 11)01:02:20:111
01:08:18.552                             : 12)01:08:18:552
01:16:51.189                             : 13)01:16:51:189
01:21:19.791                             : 14)01:21:19:791
01:28:34.183                             : 15)01:28:34:183
01:34:47.348                             : 16)01:34:47:348
01:43:31.205                             : 17)01:43:31:205


[/spoiler]



Info: Per scaricare devi usare un client come uTorrent o Transmission
AnnounceURL
udp://tracker.coppersurfer.tk:6969/announce
Hash 099cfeca17b8ca90eec63d750aaf9ed5f96a3122
Peers seeds: 56 , leech: 14
Size 1.59 GB
Completato 735x
Aggiunto 10.05.18 - 22:05:27
Uploader   robbyrs
Votazione (Voti: 0)


Condividi questo bittorrent:


html/blog:


bbcode/forum:




Aggiungi Commento


counter