* Dettagli Torrent   globale  | Commenti (0) 


- I nuovi vicini (2015).H264.italian.english.Ac3-5.1.sub.ita.MIRCrew -


Download via torrent:
Categoria bittorrent BDRip
Descrizione
The Ones Below - I nuovi vicini (2015).H264.italian.english.Ac3-5.1.sub.ita.MIRCrew


NO FOUND ONLY ORIGINAL RELEASE




My release is always in double track audio italian and Original audio
for select it use VLC or dvd player home
not use wmp

I nuovi vicini

The Ones Below


(2015)







   GENERE: Thriller, Drammatico
   ANNO: 2015
   REGIA: David Farr
   
   PAESE: Gran Bretagna
   DURATA: 87 Min



Clémence Poésy, David Morrissey, Stephen Campbell Moore, Laura Birn, Deborah Findlay, Anna Madeley, Jonathan Harden, Sam Pamphilon, Christos Lawton, Franc Ashman



Nel film, Kate (Clémence Poésy) e Justin (Stephen Campbell Moore) sono una coppia di giovani sposi che ha appena avuto un figlio, e che vive tutte le gioie e le fatiche della neo-genitorialità. I due hanno appena fatto conoscenza dei nuovi vicini di casa, che vivono al piano di sotto



A couple expecting their first child discover an unnerving difference between themselves and the couple living in the flat below them who are also having a baby.  












[spoiler]
General
Unique ID                                : 223326770447103817724957705919959099188 (0xA8032BE4B844BBF29384333C08E36734)
Complete name                            : I nuovi vicini - The Ones Below (2015).H264.ita.eng.sub.ita - MIRCrew\I nuovi vicini - The Ones Below (2015).H264.ita.eng.sub.ita - MIRCrew.mkv
Format                                   : Matroska
Format version                           : Version 2
File size                                : 1.30 GiB
Duration                                 : 1h 26mn
Overall bit rate                         : 2 170 Kbps
Movie name                               : MIRCrew
Encoded date                             : UTC 2018-04-28 12:33:30
Writing application                      : mkvmerge v5.4.0 ('Piper') built on Mar 10 2012 13:34:39
Writing library                          : Lavf54.63.100

Video
ID                                       : 1
Format                                   : AVC
Format/Info                              : Advanced Video Codec
Format profile                           : [email protected]
Format settings, CABAC                   : Yes
Format settings, ReFrames                : 2 frames
Codec ID                                 : V_MPEG4/ISO/AVC
Duration                                 : 1h 26mn
Bit rate                                 : 1 280 Kbps
Width                                    : 720 pixels
Height                                   : 384 pixels
Display aspect ratio                     : 1.854
Original display aspect ratio            : 1.853
Frame rate mode                          : Variable
Frame rate                               : 24.000 fps
Color space                              : YUV
Chroma subsampling                       : 4:2:0
Bit depth                                : 8 bits
Scan type                                : Progressive
Bits/(Pixel*Frame)                       : 0.193
Stream size                              : 758 MiB (57%)
Writing library                          : x264 core 130 r2273
Encoding settings                        : cabac=1 / ref=2 / deblock=1:0:0 / analyse=0x1:0x131 / me=hex / subme=7 / psy=1 / psy_rd=1.00:0.00 / mixed_ref=0 / me_range=16 / chroma_me=1 / trellis=1 / 8x8dct=0 / cqm=0 / deadzone=21,11 / fast_pskip=1 / chroma_qp_offset=-2 / threads=3 / lookahead_threads=1 / sliced_threads=0 / nr=0 / decimate=1 / interlaced=0 / bluray_compat=0 / constrained_intra=0 / bframes=3 / b_pyramid=0 / b_adapt=1 / b_bias=0 / direct=3 / weightb=1 / open_gop=0 / weightp=2 / keyint=240 / keyint_min=24 / scenecut=40 / intra_refresh=0 / rc_lookahead=40 / rc=abr / mbtree=1 / bitrate=1280 / ratetol=1.0 / qcomp=0.60 / qpmin=10 / qpmax=69 / qpstep=4 / vbv_maxrate=24000 / vbv_bufsize=24000 / nal_hrd=none / ip_ratio=1.40 / aq=1:1.00
Language                                 : Italian
Default                                  : Yes
Forced                                   : No
DURATION                                 : 01:26:03.167000000
NUMBER_OF_FRAMES                         : 123916
NUMBER_OF_BYTES                          : 6594072371
_STATISTICS_WRITING_APP                  : mkvmerge v9.7.1 ('Pandemonium') 64bit
_STATISTICS_WRITING_DATE_UTC             : 2018-04-02 11:47:13
_STATISTICS_TAGS                         : BPS DURATION NUMBER_OF_FRAMES NUMBER_OF_BYTES

Audio #1
ID                                       : 2
Format                                   : AC-3
Format/Info                              : Audio Coding 3
Mode extension                           : CM (complete main)
Codec ID                                 : A_AC3
Duration                                 : 1h 26mn
Bit rate mode                            : Constant
Bit rate                                 : 448 Kbps
Channel(s)                               : 6 channels
Channel positions                        : Front: L C R, Side: L R, LFE
Sampling rate                            : 48.0 KHz
Bit depth                                : 16 bits
Compression mode                         : Lossy
Delay relative to video                  : -5ms
Stream size                              : 276 MiB (21%)
Title                                    : Ita. AC3 5.1
Language                                 : Italian
Default                                  : No
Forced                                   : No
DURATION                                 : 01:26:04.032000000
NUMBER_OF_FRAMES                         : 161376
NUMBER_OF_BYTES                          : 413122560
_STATISTICS_WRITING_APP                  : mkvmerge v9.7.1 ('Pandemonium') 64bit
_STATISTICS_WRITING_DATE_UTC             : 2018-04-02 11:47:13
_STATISTICS_TAGS                         : BPS DURATION NUMBER_OF_FRAMES NUMBER_OF_BYTES

Audio #2
ID                                       : 3
Format                                   : AC-3
Format/Info                              : Audio Coding 3
Mode extension                           : CM (complete main)
Codec ID                                 : A_AC3
Duration                                 : 1h 26mn
Bit rate mode                            : Constant
Bit rate                                 : 448 Kbps
Channel(s)                               : 6 channels
Channel positions                        : Front: L C R, Side: L R, LFE
Sampling rate                            : 48.0 KHz
Bit depth                                : 16 bits
Compression mode                         : Lossy
Delay relative to video                  : -5ms
Stream size                              : 276 MiB (21%)
Title                                    : Eng. Ac3 5.1
Language                                 : English
Default                                  : No
Forced                                   : No
DURATION                                 : 01:26:04.064000000
NUMBER_OF_FRAMES                         : 484131
NUMBER_OF_BYTES                          : 974071640
_STATISTICS_WRITING_APP                  : mkvmerge v9.7.1 ('Pandemonium') 64bit
_STATISTICS_WRITING_DATE_UTC             : 2018-04-02 11:47:13
_STATISTICS_TAGS                         : BPS DURATION NUMBER_OF_FRAMES NUMBER_OF_BYTES

Menu
00:00:00.000                             : 01)00:00:00:000
00:11:30.125                             : 02)00:11:30:125
00:23:06.916                             : 03)00:23:06:916
00:34:43.583                             : 04)00:34:43:583
00:46:30.166                             : 05)00:46:30:166
00:59:25.250                             : 06)00:59:25:250
01:09:24.750                             : 07)01:09:24:750
01:21:23.041                             : 001:21:23:041


[/spoiler]



Info: Per scaricare devi usare un client come uTorrent o Transmission
AnnounceURL
udp://tracker.coppersurfer.tk:6969/announce
Hash ba148aec318669f664339c7024e71ca61aeae931
Peers seeds: 53 , leech: 16
Size 1.30 GB
Completato 883x
Aggiunto 09.05.18 - 19:05:18
Uploader   robbyrs
Votazione (Voti: 1)


Condividi questo bittorrent:


html/blog:


bbcode/forum:




Aggiungi Commento


counter