* Dettagli Torrent   globale  | Commenti (1) 


- Furious (2017).H264.italian.rus.Ac3-5.1.sub.ita.eng.MIRCrew -


Download via torrent:
Categoria bittorrent BDRip
Descrizione
Furious (2017).H264.italian.rus.Ac3-5.1.sub.ita.eng.MIRCrew



NO FOUND ONLY ORIGINAL RELEASE




My release is always in double track audio italian and Original audio
for select it use VLC or dvd player home
not use wmp

Furious

(2017)

ENGLISH SUBTITLE INSIDE








  GENERE: Action, History
  ANNO: 2017
  REGIA: Ivan Shurkhovetskiy
  SCENEGGIATURA: Dzhanik Fayziev, Pavel Stepanov, Rafael Minasbekyan, Aleksandr Bondarev, Aleksey Neklyudov
  PAESE: RUS
  DURATA: 117 Min



Ilya Malakov
Polina Chernyshova
Aleksei Serebryakov
Aleksandr Ilyin Jr.
Yulia Khlynina
Igor Savochkin
Timofey Tribuntsev
Andrey Burkovskiy
Mariya Fomina



La storia di una battaglia leggendaria, dove diciassette guerrieri senza paura difendono la loro terra contro un esercito di migliaia soldati ben addestrati…...



In the 13th century, an amnesiac soldier vows to get his revenge on the Mongol army that ransacked his village.  










[spoiler]
General
Unique ID                                : 109898915996101491382690432427923369806 (0x52ADC2E5B018F696E9E2091640E06F4E)
Complete name                            : Furious (2017) .h264.ita.rus.sub.ita - MIRCrew\Furious (2017) .h264.ita.rus.sub.ita - MIRCrew.mkv
Format                                   : Matroska
Format version                           : Version 2
File size                                : 1.82 GiB
Duration                                 : 1h 58mn
Overall bit rate                         : 2 207 Kbps
Movie name                               : MIRCrew
Encoded date                             : UTC 2018-05-07 16:39:29
Writing application                      : Lavf54.63.100
Writing library                          : Lavf54.63.100

Video
ID                                       : 1
Format                                   : AVC
Format/Info                              : Advanced Video Codec
Format profile                           : [email protected]
Format settings, CABAC                   : Yes
Format settings, ReFrames                : 2 frames
Codec ID                                 : V_MPEG4/ISO/AVC
Duration                                 : 1h 58mn
Bit rate                                 : 1 300 Kbps
Width                                    : 720 pixels
Height                                   : 300 pixels
Display aspect ratio                     : 2.40:1
Frame rate mode                          : Variable
Frame rate                               : 23.976 fps
Color space                              : YUV
Chroma subsampling                       : 4:2:0
Bit depth                                : 8 bits
Scan type                                : Progressive
Bits/(Pixel*Frame)                       : 0.251
Stream size                              : 1.05 GiB (57%)
Writing library                          : x264 core 130 r2273
Encoding settings                        : cabac=1 / ref=2 / deblock=1:0:0 / analyse=0x1:0x131 / me=hex / subme=7 / psy=1 / psy_rd=1.00:0.00 / mixed_ref=0 / me_range=16 / chroma_me=1 / trellis=1 / 8x8dct=0 / cqm=0 / deadzone=21,11 / fast_pskip=1 / chroma_qp_offset=-2 / threads=3 / lookahead_threads=1 / sliced_threads=0 / nr=0 / decimate=1 / interlaced=0 / bluray_compat=0 / constrained_intra=0 / bframes=3 / b_pyramid=0 / b_adapt=1 / b_bias=0 / direct=3 / weightb=1 / open_gop=0 / weightp=2 / keyint=230 / keyint_min=23 / scenecut=40 / intra_refresh=0 / rc_lookahead=40 / rc=abr / mbtree=1 / bitrate=1300 / ratetol=1.0 / qcomp=0.60 / qpmin=10 / qpmax=69 / qpstep=4 / vbv_maxrate=24000 / vbv_bufsize=24000 / nal_hrd=none / ip_ratio=1.40 / aq=1:1.00
Language                                 : Italian
Default                                  : Yes
Forced                                   : No
DURATION                                 : 01:57:52.232000000
NUMBER_OF_FRAMES                         : 169564
NUMBER_OF_BYTES                          : 8784752040
_STATISTICS_WRITING_APP                  : mkvmerge v9.5.0 ('Quiet Fire') 64bit
_STATISTICS_WRITING_DATE_UTC             : 2018-05-03 17:45:12
_STATISTICS_TAGS                         : BPS DURATION NUMBER_OF_FRAMES NUMBER_OF_BYTES

Audio #1
ID                                       : 2
Format                                   : AC-3
Format/Info                              : Audio Coding 3
Mode extension                           : CM (complete main)
Codec ID                                 : A_AC3
Duration                                 : 1h 58mn
Bit rate mode                            : Constant
Bit rate                                 : 448 Kbps
Channel(s)                               : 6 channels
Channel positions                        : Front: L C R, Side: L R, LFE
Sampling rate                            : 48.0 KHz
Bit depth                                : 16 bits
Compression mode                         : Lossy
Delay relative to video                  : 1mn 5s
Stream size                              : 379 MiB (20%)
Title                                    : AC3 ITA
Language                                 : Italian
Default                                  : Yes
Forced                                   : No
DURATION                                 : 01:58:08.352000000
NUMBER_OF_FRAMES                         : 221511
NUMBER_OF_BYTES                          : 396947712
_STATISTICS_WRITING_APP                  : mkvmerge v9.5.0 ('Quiet Fire') 64bit
_STATISTICS_WRITING_DATE_UTC             : 2018-05-03 17:45:12
_STATISTICS_TAGS                         : BPS DURATION NUMBER_OF_FRAMES NUMBER_OF_BYTES

Audio #2
ID                                       : 3
Format                                   : AC-3
Format/Info                              : Audio Coding 3
Mode extension                           : CM (complete main)
Codec ID                                 : A_AC3
Duration                                 : 1h 58mn
Bit rate mode                            : Constant
Bit rate                                 : 448 Kbps
Channel(s)                               : 6 channels
Channel positions                        : Front: L C R, Side: L R, LFE
Sampling rate                            : 48.0 KHz
Bit depth                                : 16 bits
Compression mode                         : Lossy
Delay relative to video                  : 1mn 5s
Stream size                              : 379 MiB (20%)
Title                                    : AC3 RUS
Language                                 : Russian
Default                                  : No
Forced                                   : No
DURATION                                 : 01:57:52.256000000
NUMBER_OF_FRAMES                         : 221008
NUMBER_OF_BYTES                          : 565780480
_STATISTICS_WRITING_APP                  : mkvmerge v9.5.0 ('Quiet Fire') 64bit
_STATISTICS_WRITING_DATE_UTC             : 2018-05-03 17:45:12
_STATISTICS_TAGS                         : BPS DURATION NUMBER_OF_FRAMES NUMBER_OF_BYTES

Menu
00:00:00.000                             : :00:00:00.000
00:07:05.342                             : :00:07:05.342
00:14:28.201                             : :00:14:28.201
00:20:13.838                             : :00:20:13.838
00:29:27.099                             : :00:29:27.099
00:39:02.590                             : :00:39:02.590
00:50:56.804                             : :00:50:56.804
00:59:52.756                             : :00:59:52.756
01:08:53.129                             : :01:08:53.129
01:16:19.950                             : :01:16:19.950
01:25:27.706                             : :01:25:27.706
01:35:23.259                             : :01:35:23.259
01:45:16.300                             : :01:45:16:300
01:55:01.150                             : :01:55:01:150



[/spoiler]



Info: Per scaricare devi usare un client come uTorrent o Transmission
AnnounceURL
udp://tracker.coppersurfer.tk:6969/announce
Hash 9392c973712df18ac1e51e8df0a3174798883448
Peers seeds: 106 , leech: 30
Size 1.82 GB
Completato 1259x
Aggiunto 08.05.18 - 20:05:28
Uploader   robbyrs
Votazione (Voti: 1)


Condividi questo bittorrent:


html/blog:


bbcode/forum:




Aggiungi Commento
Ultimi commenti
 jackal98jackal98   
Grazie
09/05 09.32
Tutti commenti (1)


counter