* Dettagli Torrent   globale  | Commenti (1) 


- 50 primavere - Aurore (2017).H264.italian.french.Ac3-5.1.sub.ita.MIRCrew -


Download via torrent:
Categoria bittorrent BDRip
Descrizione
50 primavere - Aurore (2017).H264.italian.french.Ac3-5.1.sub.ita.MIRCrew



NO FOUND ONLY ORIGINAL RELEASE




My release is always in double track audio italian and Original audio
for select it use VLC or dvd player home
not use wmp

50 primavere

Aurore

(2017)








GENERE: Commedia, Drammatico
ANNO: 2017
REGIA: Blandine Lenoir

PAESE: Francia
DURATA: 89 Min



Agnes Jaoui, Thibault de Montalembert, Pascale Arbillot, Lou Roy-Lecollinet, Samir Guesmi



Aurore Tabort (Agnes Jaoui), protagonista di 50 primavere, sta attraversando un periodo difficile: separata dal marito, ha appena perso il lavoro; a 50 anni deve sopportare le caldane della menopausa e sostenere sua figlia durante la gravidanza.



Aurore, separated from her husband, has just lost her job and been told that she is going to be a grandmother. She is slowly being pushed to the outskirts of society, but when she ... See full summary »









[spoiler]
General
Unique ID                                : 315173702750315264691255016965024813872 (0xED1C3F47416BA4D38ABBDD30CEEC9330)
Complete name                            : 50 primavere - Aurore (2017).h264.ita.fre.sub.ita - MIRCrew\50 primavere - Aurore (2017).h264.ita.fre.sub.ita - MIRCrew.mkv
Format                                   : Matroska
Format version                           : Version 2
File size                                : 1.38 GiB
Duration                                 : 1h 29mn
Overall bit rate                         : 2 195 Kbps
Movie name                               : MIRCrew
Encoded date                             : UTC 2018-05-07 12:23:53
Writing application                      : Lavf54.63.100
Writing library                          : Lavf54.63.100

Video
ID                                       : 1
Format                                   : AVC
Format/Info                              : Advanced Video Codec
Format profile                           : [email protected]
Format settings, CABAC                   : Yes
Format settings, ReFrames                : 2 frames
Codec ID                                 : V_MPEG4/ISO/AVC
Duration                                 : 1h 29mn
Bit rate                                 : 1 300 Kbps
Width                                    : 720 pixels
Height                                   : 384 pixels
Display aspect ratio                     : 16:9
Frame rate mode                          : Variable
Frame rate                               : 23.976 fps
Color space                              : YUV
Chroma subsampling                       : 4:2:0
Bit depth                                : 8 bits
Scan type                                : Progressive
Bits/(Pixel*Frame)                       : 0.196
Stream size                              : 806 MiB (57%)
Writing library                          : x264 core 130 r2273
Encoding settings                        : cabac=1 / ref=2 / deblock=1:0:0 / analyse=0x1:0x131 / me=hex / subme=7 / psy=1 / psy_rd=1.00:0.00 / mixed_ref=0 / me_range=16 / chroma_me=1 / trellis=1 / 8x8dct=0 / cqm=0 / deadzone=21,11 / fast_pskip=1 / chroma_qp_offset=-2 / threads=3 / lookahead_threads=1 / sliced_threads=0 / nr=0 / decimate=1 / interlaced=0 / bluray_compat=0 / constrained_intra=0 / bframes=3 / b_pyramid=0 / b_adapt=1 / b_bias=0 / direct=3 / weightb=1 / open_gop=0 / weightp=2 / keyint=230 / keyint_min=23 / scenecut=40 / intra_refresh=0 / rc_lookahead=40 / rc=abr / mbtree=1 / bitrate=1300 / ratetol=1.0 / qcomp=0.60 / qpmin=10 / qpmax=69 / qpstep=4 / vbv_maxrate=24000 / vbv_bufsize=24000 / nal_hrd=none / ip_ratio=1.40 / aq=1:1.00
Language                                 : English
Default                                  : Yes
Forced                                   : No
DURATION                                 : 01:29:25.944000000
NUMBER_OF_FRAMES                         : 128654
NUMBER_OF_BYTES                          : 6448210541
_STATISTICS_WRITING_APP                  : mkvmerge v8.3.0 ('Over the Horizon') 64bit
_STATISTICS_WRITING_DATE_UTC             : 2018-04-04 08:52:36
_STATISTICS_TAGS                         : BPS DURATION NUMBER_OF_FRAMES NUMBER_OF_BYTES

Audio #1
ID                                       : 2
Format                                   : AC-3
Format/Info                              : Audio Coding 3
Mode extension                           : CM (complete main)
Codec ID                                 : A_AC3
Duration                                 : 1h 29mn
Bit rate mode                            : Constant
Bit rate                                 : 448 Kbps
Channel(s)                               : 6 channels
Channel positions                        : Front: L C R, Side: L R, LFE
Sampling rate                            : 48.0 KHz
Bit depth                                : 16 bits
Compression mode                         : Lossy
Delay relative to video                  : 1mn 5s
Stream size                              : 288 MiB (20%)
Title                                    : AC3 DVD RESYNC
Language                                 : Italian
Default                                  : Yes
Forced                                   : No
DURATION                                 : 01:29:46.016000000
NUMBER_OF_FRAMES                         : 168313
NUMBER_OF_BYTES                          : 301616896
_STATISTICS_WRITING_APP                  : mkvmerge v8.3.0 ('Over the Horizon') 64bit
_STATISTICS_WRITING_DATE_UTC             : 2018-04-04 08:52:36
_STATISTICS_TAGS                         : BPS DURATION NUMBER_OF_FRAMES NUMBER_OF_BYTES

Audio #2
ID                                       : 3
Format                                   : AC-3
Format/Info                              : Audio Coding 3
Mode extension                           : CM (complete main)
Codec ID                                 : A_AC3
Duration                                 : 1h 29mn
Bit rate mode                            : Constant
Bit rate                                 : 448 Kbps
Channel(s)                               : 2 channels
Channel positions                        : Front: L R
Sampling rate                            : 48.0 KHz
Bit depth                                : 16 bits
Compression mode                         : Lossy
Delay relative to video                  : 1mn 5s
Stream size                              : 288 MiB (20%)
Title                                    : AC3
Language                                 : French
Default                                  : No
Forced                                   : No
DURATION                                 : 01:29:26.016000000
NUMBER_OF_FRAMES                         : 167688
NUMBER_OF_BYTES                          : 300496896
_STATISTICS_WRITING_APP                  : mkvmerge v8.3.0 ('Over the Horizon') 64bit
_STATISTICS_WRITING_DATE_UTC             : 2018-04-04 08:52:36
_STATISTICS_TAGS                         : BPS DURATION NUMBER_OF_FRAMES NUMBER_OF_BYTES

Menu
00:00:00.000                             : :00:00:00.000
00:07:40.877                             : :00:07:40.877
00:14:35.958                             : :00:14:35.958
00:23:20.941                             : :00:23:20.941
00:30:57.522                             : :00:30:57.522
00:37:43.011                             : :00:37:43.011
00:45:42.114                             : :00:45:42.114
00:52:22.306                             : :00:52:22.306
01:01:45.368                             : :01:01:45.368
01:10:56.461                             : :01:10:56.461
01:20:03.757                             : :01:20:03.757
01:25:33.253                             : :01:25:33.253




[/spoiler]



Info: Per scaricare devi usare un client come uTorrent o Transmission
AnnounceURL
udp://tracker.coppersurfer.tk:6969/announce
Hash 018f807d88bddbd24896f2c490c84a7095e366ca
Peers seeds: 85 , leech: 22
Size 1.38 GB
Completato 1427x
Aggiunto 08.05.18 - 19:05:45
Uploader   robbyrs
Votazione (Voti: 1)


Condividi questo bittorrent:


html/blog:


bbcode/forum:




Aggiungi Commento
Ultimi commenti
  
Grazie
09/05 17.36
Tutti commenti (1)


counter