* Dettagli Torrent   globale  | Commenti (0) 


- Ash Vs Evil Dead 3x08-10.Mp4.Italian.english.sub.ita.eng.MIRCrew -


Download via torrent:
Categoria bittorrent SerieTv
Descrizione
Ash Vs Evil Dead 3x08-10.Mp4.Italian.english.sub.ita.eng.MIRCrew


NO FOUND ONLY ORIGINAL RELEASE



My release is always in double track audio italian and Original audio
for select it use VLC or dvd player home
not use wmp

Ash Vs Evil Dead 3x08-09-10







Genre Horror, Supernatural
Based on Characters: by Sam Raimi
Developed by

   Sam Raimi
   Ivan Raimi
   Tom Spezialy



   Bruce Campbell
   Ray Santiago
   Dana DeLorenzo
   Jill Marie Jones
   Lucy Lawless
   Michelle Hurd
   Ted Raimi
   Pepi Sonuga
   Arielle Carver-O'Neill
   Lindsay Farris



Sono passati ormai 30 anni da quando Ash Williams ha dovuto combattere contro le forze del male. Oggi fa ancora il commesso nello stesso centro commerciale di un tempo, vive in una roulotte, e trascorre le serate in cerca di facili avventure.



Ash vs Evil Dead is an American comedy horror television series developed by Sam Raimi, Ivan Raimi, and Tom Spezialy for the Starz network filmed in New Zealand. It is set in Raimi's Evil Dead universe, with Bruce Campbell reprising his role as Ash Williams, and acts as a sequel to the original trilogy.............










[spoiler]

General
Complete name                            : Ash vs Evil Dead 3x09-10.mp4.ita.eng.sub.ita.eng - MIRCrew\Ash.vs.evil.dead.3x10.l.uomo.cazzuto.mp4.ita.eng.subita.eng - MIRCrew.m4v
Format                                   : MPEG-4
Format profile                           : Base Media / Version 2
Codec ID                                 : mp42
File size                                : 262 MiB
Duration                                 : 29mn 30s
Overall bit rate mode                    : Variable
Overall bit rate                         : 1 241 Kbps
Encoded date                             : UTC 2018-05-01 17:54:50
Tagged date                              : UTC 2018-05-01 17:54:50
Writing application                      : HandBrake 0.10.5 2016021100

Video
ID                                       : 1
Format                                   : AVC
Format/Info                              : Advanced Video Codec
Format profile                           : [email protected]
Format settings, CABAC                   : Yes
Format settings, ReFrames                : 4 frames
Codec ID                                 : avc1
Codec ID/Info                            : Advanced Video Coding
Duration                                 : 29mn 30s
Bit rate                                 : 1 000 Kbps
Width                                    : 656 pixels
Height                                   : 368 pixels
Display aspect ratio                     : 16:9
Frame rate mode                          : Variable
Frame rate                               : 23.976 fps
Minimum frame rate                       : 23.974 fps
Maximum frame rate                       : 23.981 fps
Color space                              : YUV
Chroma subsampling                       : 4:2:0
Bit depth                                : 8 bits
Scan type                                : Progressive
Bits/(Pixel*Frame)                       : 0.173
Stream size                              : 206 MiB (79%)
Writing library                          : x264 core 142 r2479 dd79a61
Encoding settings                        : cabac=1 / ref=3 / deblock=1:0:0 / analyse=0x3:0x113 / me=hex / subme=7 / psy=1 / psy_rd=1.00:0.00 / mixed_ref=1 / me_range=16 / chroma_me=1 / trellis=1 / 8x8dct=1 / cqm=0 / deadzone=21,11 / fast_pskip=1 / chroma_qp_offset=-2 / threads=3 / lookahead_threads=1 / sliced_threads=0 / nr=0 / decimate=1 / interlaced=0 / bluray_compat=0 / constrained_intra=0 / bframes=3 / b_pyramid=2 / b_adapt=1 / b_bias=0 / direct=1 / weightb=1 / open_gop=0 / weightp=2 / keyint=240 / keyint_min=24 / scenecut=40 / intra_refresh=0 / rc_lookahead=40 / rc=abr / mbtree=1 / bitrate=1000 / ratetol=1.0 / qcomp=0.60 / qpmin=0 / qpmax=69 / qpstep=4 / vbv_maxrate=62500 / vbv_bufsize=78125 / nal_hrd=none / filler=0 / ip_ratio=1.40 / aq=1:1.00
Encoded date                             : UTC 2018-05-01 17:54:50
Tagged date                              : UTC 2018-05-01 17:54:50
Color primaries                          : BT.601-6 525, BT.1358 525, BT.1700 NTSC, SMPTE 170M
Transfer characteristics                 : BT.709-5, BT.1361
Matrix coefficients                      : BT.601-6 525, BT.1358 525, BT.1700 NTSC, SMPTE 170M

Audio #1
ID                                       : 2
Format                                   : AAC
Format/Info                              : Advanced Audio Codec
Format profile                           : LC
Codec ID                                 : 40
Duration                                 : 29mn 30s
Bit rate mode                            : Variable
Bit rate                                 : 128 Kbps
Channel(s)                               : 2 channels
Channel positions                        : Front: L R
Sampling rate                            : 48.0 KHz
Compression mode                         : Lossy
Delay relative to video                  : -7s 507ms
Stream size                              : 27.1 MiB (10%)
Title                                    : Stereo
Encoded date                             : UTC 2018-05-01 17:54:50
Tagged date                              : UTC 2018-05-01 17:54:50

Audio #2
ID                                       : 3
Format                                   : AAC
Format/Info                              : Advanced Audio Codec
Format profile                           : LC
Codec ID                                 : 40
Duration                                 : 29mn 30s
Bit rate mode                            : Variable
Bit rate                                 : 128 Kbps
Channel(s)                               : 2 channels
Channel positions                        : Front: L R
Sampling rate                            : 48.0 KHz
Compression mode                         : Lossy
Delay relative to video                  : -7s 507ms
Stream size                              : 27.1 MiB (10%)
Title                                    : Stereo
Encoded date                             : UTC 2018-05-01 17:54:50
Tagged date                              : UTC 2018-05-01 17:54:50




[/spoiler]



Info: Per scaricare devi usare un client come uTorrent o Transmission
AnnounceURL
udp://tracker.coppersurfer.tk:6969/announce
Hash b0c73e0892b05fda3f91cbd61f30e50fd3730117
Peers seeds: 7 , leech: 8
Size 764.18 MB
Completato 129x
Aggiunto 08.05.18 - 18:05:05
Uploader   robbyrs
Votazione (Voti: 1)


Condividi questo bittorrent:


html/blog:


bbcode/forum:




Aggiungi Commento


counter