* Dettagli Torrent   globale  | Commenti (0) 


- The Lego Ninjago - Movie (2017).720p.H264.italian.English.Ac3-5.1.sub.ita.eng.MIRCrew -


Download via torrent:
Categoria bittorrent BDRip
Descrizione
The Lego Ninjago - Movie (2017).720p.H264.italian.English.Ac3-5.1.sub.ita.eng.MIRCrew



NO FOUND ONLY ORIGINAL RELEASE



My release is always in double track audio italian and Original audio
for select it use VLC or dvd player home
not use wmp

The Lego Ninjago - Il Film

(2017)

Quality MIRCrew on HD 720p da  1,9 gb








GENERE: Animazione, Family, Azione
ANNO: 2017
REGIA: Charlie Bean
PAESE: USA
DURATA: 101 Min



***************************



Terzo lungometraggio per il grande schermo ispirato ai mattoncini LEGO e basato sull'omonima serie animata per la Tv. In LEGO Ninjago - Il film, una tremenda minaccia si abbatte sulla lontana terra di Ninjago, un paese "assemblato" per assomigliare al Giappone feudale ma con la più avanzata tecnologia dei mattoncini componibili.



Shunned by everyone for being the son of an evil warlord, a teenager seeks to defeat him with the help of his fellow ninjas.









[spoiler]
General
Unique ID                                : 159628377732331968034528069878725743412 (0x78174EA8E90470A986D48FA695501334)
Complete name                            : The Lego Ninjago - Il Film (2017).720p.h264.ita.eng.sub.ita.eng - MIRCrew\The Lego Ninjago - Il Film (2017).720p.h264.ita.eng.sub.ita.eng - MIRCrew.mkv
Format                                   : Matroska
Format version                           : Version 2
File size                                : 1.90 GiB
Duration                                 : 1h 41mn
Overall bit rate                         : 2 684 Kbps
Movie name                               : MIRCrew
Encoded date                             : UTC 2018-01-24 17:23:39
Writing application                      : Lavf54.63.100
Writing library                          : Lavf54.63.100
COPYRIGHT                                : robbyrs - Il Corsaronero

Video
ID                                       : 1
Format                                   : AVC
Format/Info                              : Advanced Video Codec
Format profile                           : [email protected]
Format settings, CABAC                   : Yes
Format settings, ReFrames                : 2 frames
Codec ID                                 : V_MPEG4/ISO/AVC
Duration                                 : 1h 41mn
Bit rate                                 : 1 800 Kbps
Width                                    : 1 280 pixels
Height                                   : 528 pixels
Display aspect ratio                     : 2.40:1
Frame rate mode                          : Variable
Frame rate                               : 23.976 fps
Color space                              : YUV
Chroma subsampling                       : 4:2:0
Bit depth                                : 8 bits
Scan type                                : Progressive
Bits/(Pixel*Frame)                       : 0.111
Stream size                              : 1.23 GiB (65%)
Writing library                          : x264 core 130 r2273
Encoding settings                        : cabac=1 / ref=2 / deblock=1:0:0 / analyse=0x1:0x131 / me=hex / subme=7 / psy=1 / psy_rd=1.00:0.00 / mixed_ref=0 / me_range=16 / chroma_me=1 / trellis=1 / 8x8dct=0 / cqm=0 / deadzone=21,11 / fast_pskip=1 / chroma_qp_offset=-2 / threads=3 / lookahead_threads=1 / sliced_threads=0 / nr=0 / decimate=1 / interlaced=0 / bluray_compat=0 / constrained_intra=0 / bframes=3 / b_pyramid=0 / b_adapt=1 / b_bias=0 / direct=3 / weightb=1 / open_gop=0 / weightp=2 / keyint=230 / keyint_min=23 / scenecut=40 / intra_refresh=0 / rc_lookahead=40 / rc=abr / mbtree=1 / bitrate=1800 / ratetol=1.0 / qcomp=0.60 / qpmin=10 / qpmax=69 / qpstep=4 / vbv_maxrate=24000 / vbv_bufsize=24000 / nal_hrd=none / ip_ratio=1.40 / aq=1:1.00
Language                                 : Italian
Default                                  : Yes
Forced                                   : No

Audio #1
ID                                       : 2
Format                                   : AC-3
Format/Info                              : Audio Coding 3
Mode extension                           : CM (complete main)
Codec ID                                 : A_AC3
Duration                                 : 1h 41mn
Bit rate mode                            : Constant
Bit rate                                 : 448 Kbps
Channel(s)                               : 6 channels
Channel positions                        : Front: L C R, Side: L R, LFE
Sampling rate                            : 48.0 KHz
Bit depth                                : 16 bits
Compression mode                         : Lossy
Delay relative to video                  : 1mn 5s
Stream size                              : 325 MiB (17%)
Title                                    : AC3 5.1
Language                                 : Italian
Default                                  : Yes
Forced                                   : No

Audio #2
ID                                       : 3
Format                                   : AC-3
Format/Info                              : Audio Coding 3
Mode extension                           : CM (complete main)
Codec ID                                 : A_AC3
Duration                                 : 1h 41mn
Bit rate mode                            : Constant
Bit rate                                 : 448 Kbps
Channel(s)                               : 6 channels
Channel positions                        : Front: L C R, Side: L R, LFE
Sampling rate                            : 48.0 KHz
Bit depth                                : 16 bits
Compression mode                         : Lossy
Delay relative to video                  : 1mn 5s
Stream size                              : 325 MiB (17%)
Title                                    : AC3 5.1
Language                                 : English
Default                                  : No
Forced                                   : No

Menu
00:00:00.000                             : :00:00:00.000
00:11:44.746                             : :00:11:44.746
00:23:32.453                             : :00:23:32.453
00:31:09.785                             : :00:31:09.785
00:40:53.368                             : :00:40:53.368
00:53:48.392                             : :00:53:48.392
01:03:05.532                             : :01:03:05.532
01:16:07.688                             : :01:16:07.688
01:25:13.608                             : :01:25:13.608
01:32:10.900                             : :01:32:10.900



[/spoiler]



Info: Per scaricare devi usare un client come uTorrent o Transmission
AnnounceURL
udp://tracker.coppersurfer.tk:6969/announce
Hash 3df1f5c18530142a56107e0b4b170fa0b9b17d7a
Peers seeds: 45 , leech: 17
Size 1.90 GB
Completato 991x
Aggiunto 06.05.18 - 17:05:10
Uploader   robbyrs
Votazione (Voti: 0)


Condividi questo bittorrent:


html/blog:


bbcode/forum:




Aggiungi Commento


counter