* Dettagli Torrent   globale  | Commenti (1) 


- Brigsby Bear (2017).H264.italian.english.Ac3-5.1.sub.ita.MIRCrew -


Download via torrent:
Categoria bittorrent BDRip
Descrizione
Brigsby Bear (2017).H264.italian.english.Ac3-5.1.sub.ita.MIRCrew


NO FOUND ONLY ORIGINAL RELEASE




My release is always in double track audio italian and Original audio
for select it use VLC or dvd player home
not use wmp

Brigsby Bear

(2017)




[URL=][/URL]



Paese di produzione Stati Uniti d'America
Anno 2017
Durata 97 min
Genere drammatico, commedia
Regia Dave McCary
Sceneggiatura Kyle Mooney, Kevin Costello
Produttore Andy Samberg,



   Kyle Mooney: James Pope
   Claire Danes: Emily
   Mark Hamill: Ted Mitchum
   Greg Kinnear: Detective Vogel
   Andy Samberg: Eric
   Matt Walsh: Greg Pope
   Michaela Watkins: Louise Pope
   Beck Bennett: agente Bander
   Kate Lyn Sheil: Arielle e Nina Smiles
   Ryan Simpkins: Aubrey Pope
   Jane Adams: April Mitchum



Quando era ancora un neonato, James Pope è stato rapito dall'ospedale dove è nato ed è cresciuto completamente isolato dal mondo. L'unica cosa che ha conosciuto è stato Brigsby Bear, un orso gigante protagonista di una serie TV per bambini creata apposta dalla coppia di squilibrati che lo ha cresciuto



Brigsby Bear Adventures is a children's TV show produced for an audience of one: James. When the show abruptly ends, James's life changes forever, and he sets out to finish the story









[spoiler]
General
Unique ID                                : 190704015112472171980219763252263408298 (0x8F7841DFDAC093FF8835874C118852AA)
Complete name                            : Brigsby Bear (2017).H264.ita.eng.sub.ita - MIRCrew\Brigsby Bear (2017).H264.ita.eng.sub.ita - MIRCrew.mkv
Format                                   : Matroska
Format version                           : Version 2
File size                                : 1.48 GiB
Duration                                 : 1h 37mn
Overall bit rate                         : 2 186 Kbps
Movie name                               : MIRCrew
Encoded date                             : UTC 2018-02-23 10:45:28
Writing application                      : mkvmerge v5.4.0 ('Piper') built on Mar 10 2012 13:34:39
Writing library                          : Lavf54.63.100
COPYRIGHT                                : robbyrs - Il Corsaronero

Video
ID                                       : 1
Format                                   : AVC
Format/Info                              : Advanced Video Codec
Format profile                           : [email protected]
Format settings, CABAC                   : Yes
Format settings, ReFrames                : 2 frames
Codec ID                                 : V_MPEG4/ISO/AVC
Duration                                 : 1h 37mn
Bit rate                                 : 1 290 Kbps
Width                                    : 720 pixels
Height                                   : 304 pixels
Display aspect ratio                     : 2.40:1
Original display aspect ratio            : 2.40:1
Frame rate mode                          : Variable
Frame rate                               : 23.976 fps
Color space                              : YUV
Chroma subsampling                       : 4:2:0
Bit depth                                : 8 bits
Scan type                                : Progressive
Bits/(Pixel*Frame)                       : 0.246
Stream size                              : 866 MiB (57%)
Title                                    : Brigsby Bear (2017).H264.ita.eng.sub.ita - MIRCrew
Writing library                          : x264 core 130 r2273
Encoding settings                        : cabac=1 / ref=2 / deblock=1:0:0 / analyse=0x1:0x131 / me=hex / subme=7 / psy=1 / psy_rd=1.00:0.00 / mixed_ref=0 / me_range=16 / chroma_me=1 / trellis=1 / 8x8dct=0 / cqm=0 / deadzone=21,11 / fast_pskip=1 / chroma_qp_offset=-2 / threads=3 / lookahead_threads=1 / sliced_threads=0 / nr=0 / decimate=1 / interlaced=0 / bluray_compat=0 / constrained_intra=0 / bframes=3 / b_pyramid=0 / b_adapt=1 / b_bias=0 / direct=3 / weightb=1 / open_gop=0 / weightp=2 / keyint=230 / keyint_min=23 / scenecut=40 / intra_refresh=0 / rc_lookahead=40 / rc=abr / mbtree=1 / bitrate=1290 / ratetol=1.0 / qcomp=0.60 / qpmin=10 / qpmax=69 / qpstep=4 / vbv_maxrate=24000 / vbv_bufsize=24000 / nal_hrd=none / ip_ratio=1.40 / aq=1:1.00
Language                                 : Italian
Default                                  : Yes
Forced                                   : No
DURATION                                 : 01:37:11.794000000
NUMBER_OF_FRAMES                         : 139823
NUMBER_OF_BYTES                          : 7112956338
_STATISTICS_WRITING_APP                  : mkvmerge v7.4.0 ('Circles') 32bit built on Dec 12 2014 12:10:09
_STATISTICS_WRITING_DATE_UTC             : 2018-02-23 10:45:28
_STATISTICS_TAGS                         : BPS DURATION NUMBER_OF_FRAMES NUMBER_OF_BYTES

Audio #1
ID                                       : 2
Format                                   : AC-3
Format/Info                              : Audio Coding 3
Mode extension                           : CM (complete main)
Codec ID                                 : A_AC3
Duration                                 : 1h 37mn
Bit rate mode                            : Constant
Bit rate                                 : 448 Kbps
Channel(s)                               : 6 channels
Channel positions                        : Front: L C R, Side: L R, LFE
Sampling rate                            : 48.0 KHz
Bit depth                                : 16 bits
Compression mode                         : Lossy
Delay relative to video                  : -5ms
Stream size                              : 311 MiB (20%)
Title                                    : Ita Ac3 5.1
Language                                 : Italian
Default                                  : Yes
Forced                                   : No
DURATION                                 : 01:37:11.904000000
NUMBER_OF_FRAMES                         : 182247
NUMBER_OF_BYTES                          : 326586624
_STATISTICS_WRITING_APP                  : mkvmerge v7.4.0 ('Circles') 32bit built on Dec 12 2014 12:10:09
_STATISTICS_WRITING_DATE_UTC             : 2018-02-23 10:45:28
_STATISTICS_TAGS                         : BPS DURATION NUMBER_OF_FRAMES NUMBER_OF_BYTES

Audio #2
ID                                       : 3
Format                                   : AC-3
Format/Info                              : Audio Coding 3
Mode extension                           : CM (complete main)
Codec ID                                 : A_AC3
Duration                                 : 1h 37mn
Bit rate mode                            : Constant
Bit rate                                 : 448 Kbps
Channel(s)                               : 6 channels
Channel positions                        : Front: L C R, Side: L R, LFE
Sampling rate                            : 48.0 KHz
Bit depth                                : 16 bits
Compression mode                         : Lossy
Delay relative to video                  : -5ms
Stream size                              : 311 MiB (20%)
Title                                    : eng Ac3 5.1
Language                                 : English
Default                                  : No
Forced                                   : No
DURATION                                 : 01:37:11.872000000
NUMBER_OF_FRAMES                         : 182246
NUMBER_OF_BYTES                          : 466549760
_STATISTICS_WRITING_APP                  : mkvmerge v7.4.0 ('Circles') 32bit built on Dec 12 2014 12:10:09
_STATISTICS_WRITING_DATE_UTC             : 2018-02-23 10:45:28
_STATISTICS_TAGS                         : BPS DURATION NUMBER_OF_FRAMES NUMBER_OF_BYTES




[/spoiler]



Info: Per scaricare devi usare un client come uTorrent o Transmission
AnnounceURL
udp://tracker.coppersurfer.tk:6969/announce
Hash b4a84582d241610feaf454885623d956e13db359
Peers seeds: 82 , leech: 41
Size 1.48 GB
Completato 518x
Aggiunto 05.05.18 - 23:05:01
Uploader   robbyrs
Votazione (Voti: 1)


Condividi questo bittorrent:


html/blog:


bbcode/forum:




Aggiungi Commento
Ultimi commenti
  
Grazie mille!
07/05 02.02
Tutti commenti (1)


counter