* Dettagli Torrent   globale  | Commenti (1) 


- Neerja - Volo Pan Am 73 (2016).H264.italian.english.indi.Ac3-5.1.sub.ita.eng.MIRCrew -


Download via torrent:
Categoria bittorrent BDRip
Descrizione
Neerja - Volo Pan Am 73 (2016).H264.italian.english.indi.Ac3-5.1.sub.ita.eng.MIRCrew


NO FOUND ONLY ORIGINAL RELEASE




My release is always in double track audio italian and Original audio
for select it use VLC or dvd player home
not use wmp

ENGLISH AND ITALIAN SUBTITLE INSIDE

Neerja - Volo Pan Am 73

(2016)








GENERE: Drammatico, Thriller, Biografico
ANNO: 2016
REGIA: Ram Madhvani

PAESE: India
DURATA: 122 Min



Sonam Kapoor, Shabana Azmi



Il film racconta la vera storia di Neerja Bhanot, che sacrificò la sua vita per salvare quella quelle dei 359 passeggeri a bordo del Volo Pan Am 73, dirottato da un gruppo terroristico nel 1986.


Neerja is the story of the courageous Neerja Bhanot, who sacrificed her life while protecting the lives of 359 passengers on the Pan Am flight 73 in 1986. The flight was hijacked by a terrorist organization.  












[spoiler]
General
Unique ID                                : 29628261735698038655874612996544939226 (0x164A3215F7982272929C58DD959C44DA)
Complete name                            : Neerja Volo Pan Am 73 (2016).h264.ita.eng.indi.sub.ita.eng - MIRcrew\Neerja Volo Pan Am 73 (2016).h264.ita.eng.indi.sub.ita.eng - MIRcrew.mkv
Format                                   : Matroska
Format version                           : Version 2
File size                                : 1.87 GiB
Duration                                 : 2h 1mn
Overall bit rate                         : 2 197 Kbps
Movie name                               : MIRCrew
Encoded date                             : UTC 2018-05-03 14:48:37
Writing application                      : Lavf54.63.100
Writing library                          : Lavf54.63.100

Video
ID                                       : 1
Format                                   : AVC
Format/Info                              : Advanced Video Codec
Format profile                           : [email protected]
Format settings, CABAC                   : Yes
Format settings, ReFrames                : 2 frames
Codec ID                                 : V_MPEG4/ISO/AVC
Duration                                 : 2h 1mn
Bit rate                                 : 1 300 Kbps
Width                                    : 720 pixels
Height                                   : 304 pixels
Display aspect ratio                     : 2.35:1
Frame rate mode                          : Variable
Frame rate                               : 24.000 fps
Color space                              : YUV
Chroma subsampling                       : 4:2:0
Bit depth                                : 8 bits
Scan type                                : Progressive
Bits/(Pixel*Frame)                       : 0.247
Stream size                              : 1.07 GiB (57%)
Writing library                          : x264 core 130 r2273
Encoding settings                        : cabac=1 / ref=2 / deblock=1:0:0 / analyse=0x1:0x131 / me=hex / subme=7 / psy=1 / psy_rd=1.00:0.00 / mixed_ref=0 / me_range=16 / chroma_me=1 / trellis=1 / 8x8dct=0 / cqm=0 / deadzone=21,11 / fast_pskip=1 / chroma_qp_offset=-2 / threads=3 / lookahead_threads=1 / sliced_threads=0 / nr=0 / decimate=1 / interlaced=0 / bluray_compat=0 / constrained_intra=0 / bframes=3 / b_pyramid=0 / b_adapt=1 / b_bias=0 / direct=3 / weightb=1 / open_gop=0 / weightp=2 / keyint=240 / keyint_min=24 / scenecut=40 / intra_refresh=0 / rc_lookahead=40 / rc=abr / mbtree=1 / bitrate=1300 / ratetol=1.0 / qcomp=0.60 / qpmin=10 / qpmax=69 / qpstep=4 / vbv_maxrate=24000 / vbv_bufsize=24000 / nal_hrd=none / ip_ratio=1.40 / aq=1:1.00
Language                                 : Italian
Default                                  : Yes
Forced                                   : No
DURATION                                 : 02:01:41.584000000
NUMBER_OF_FRAMES                         : 175238
NUMBER_OF_BYTES                          : 10276855233
_STATISTICS_WRITING_APP                  : mkvmerge v9.5.0 ('Quiet Fire') 64bit
_STATISTICS_WRITING_DATE_UTC             : 2018-05-01 06:45:38
_STATISTICS_TAGS                         : BPS DURATION NUMBER_OF_FRAMES NUMBER_OF_BYTES

Audio #1
ID                                       : 2
Format                                   : AC-3
Format/Info                              : Audio Coding 3
Mode extension                           : CM (complete main)
Codec ID                                 : A_AC3
Duration                                 : 2h 1mn
Bit rate mode                            : Constant
Bit rate                                 : 448 Kbps
Channel(s)                               : 6 channels
Channel positions                        : Front: L C R, Side: L R, LFE
Sampling rate                            : 48.0 KHz
Bit depth                                : 16 bits
Compression mode                         : Lossy
Delay relative to video                  : 1mn 5s
Stream size                              : 390 MiB (20%)
Title                                    : AC3 ITA
Language                                 : Italian
Default                                  : Yes
Forced                                   : No
DURATION                                 : 02:01:41.664000000
NUMBER_OF_FRAMES                         : 228177
NUMBER_OF_BYTES                          : 408893184
_STATISTICS_WRITING_APP                  : mkvmerge v9.5.0 ('Quiet Fire') 64bit
_STATISTICS_WRITING_DATE_UTC             : 2018-05-01 06:45:38
_STATISTICS_TAGS                         : BPS DURATION NUMBER_OF_FRAMES NUMBER_OF_BYTES

Audio #2
ID                                       : 3
Format                                   : AC-3
Format/Info                              : Audio Coding 3
Mode extension                           : CM (complete main)
Codec ID                                 : A_AC3
Duration                                 : 2h 1mn
Bit rate mode                            : Constant
Bit rate                                 : 448 Kbps
Channel(s)                               : 6 channels
Channel positions                        : Front: L C R, Side: L R, LFE
Sampling rate                            : 48.0 KHz
Bit depth                                : 16 bits
Compression mode                         : Lossy
Delay relative to video                  : 1mn 5s
Stream size                              : 390 MiB (20%)
Title                                    : AC3 ENG
Language                                 : English
Default                                  : No
Forced                                   : No
DURATION                                 : 02:01:41.600000000
NUMBER_OF_FRAMES                         : 228175
NUMBER_OF_BYTES                          : 584128000
_STATISTICS_WRITING_APP                  : mkvmerge v9.5.0 ('Quiet Fire') 64bit
_STATISTICS_WRITING_DATE_UTC             : 2018-05-01 06:45:38
_STATISTICS_TAGS                         : BPS DURATION NUMBER_OF_FRAMES NUMBER_OF_BYTES

Menu
00:00:00.000                             : :00:00:00.000
00:07:05.342                             : :00:07:05.342
00:14:28.201                             : :00:14:28.201
00:20:13.838                             : :00:20:13.838
00:29:27.099                             : :00:29:27.099
00:39:02.590                             : :00:39:02.590
00:50:56.804                             : :00:50:56.804
00:59:52.756                             : :00:59:52.756
01:08:53.129                             : :01:08:53.129
01:16:19.950                             : :01:16:19.950
01:25:27.706                             : :01:25:27.706
01:35:23.259                             : :01:35:23.259
01:45:16.300                             : :01:45:16:300
01:55:01.150                             : :01:55:01:150




[/spoiler]



Info: Per scaricare devi usare un client come uTorrent o Transmission
AnnounceURL
udp://tracker.coppersurfer.tk:6969/announce
Hash 1bcd62de9dbfd95494bde5dff6f13b6dfd943195
Peers seeds: 69 , leech: 21
Size 1.87 GB
Completato 689x
Aggiunto 05.05.18 - 20:05:46
Uploader   robbyrs
Votazione (Voti: 0)


Condividi questo bittorrent:


html/blog:


bbcode/forum:




Aggiungi Commento
Ultimi commenti
  
Grazie mille!
07/05 02.04
Tutti commenti (1)


counter