* Dettagli Torrent   globale  | Commenti (1) 


- Taddeo l esploratore e il segreto di Re Mida (2017).H264.italian.spa.Ac3-5.1.sub.ita.MIRCrew -


Download via torrent:
Categoria bittorrent BDRip
Descrizione
Taddeo l esploratore e il segreto di Re Mida (2017).H264.italian.spanish.Ac3-5.1.sub.ita.MIRCrew


NO FOUND ONLY ORIGINAL RELEASE




My release is always in double track audio italian and Original audio
for select it use VLC or dvd player home
not use wmp

Taddeo l'esploratore

e il segreto di Re Mida


(2017)







Titolo originale: Las aventuras de Tadeo Jones
Regia: Enrique Gato, David Alonso
Paese: Spagna
Anno: 2017



_____________________




L'intrepido Taddeo è impegnato in una nuova ed entusiasmante avventura: questa volta dovrà impedire che un re, chiamato 'Il cacciatore', metta le mani su un prezioso libro.



Tad Jones, the most awkward explorer, must rescue his beloved Sara from a millionaire who is looking for King Midas' necklace.  










[spoiler]
General
Unique ID                                : 202863155957804033950188024547120552301 (0x989E05CD8490B9F7ABB5D8ACDFE4996D)
Complete name                            : Taddeo L Esploratore E Il Segreto Di Re Mida (2017).H264.ita.sub.ita - MIRCrew\Taddeo L Esploratore E Il Segreto Di Re Mida (2017).H264.ita.sub.ita - MIRCrew.mkv
Format                                   : Matroska
Format version                           : Version 2
File size                                : 1.31 GiB
Duration                                 : 1h 24mn
Overall bit rate                         : 2 209 Kbps
Movie name                               : MIRCrew
Encoded date                             : UTC 2018-04-19 21:10:30
Writing application                      : mkvmerge v5.4.0 ('Piper') built on Mar 10 2012 13:34:39
Writing library                          : Lavf54.63.100
COPYRIGHT                                : robbyrs - Il Corsaronero

Video
ID                                       : 1
Format                                   : AVC
Format/Info                              : Advanced Video Codec
Format profile                           : [email protected]
Format settings, CABAC                   : Yes
Format settings, ReFrames                : 2 frames
Codec ID                                 : V_MPEG4/ISO/AVC
Duration                                 : 1h 24mn
Bit rate                                 : 1 300 Kbps
Width                                    : 720 pixels
Height                                   : 304 pixels
Display aspect ratio                     : 2.35:1
Frame rate mode                          : Variable
Frame rate                               : 23.976 fps
Color space                              : YUV
Chroma subsampling                       : 4:2:0
Bit depth                                : 8 bits
Scan type                                : Progressive
Bits/(Pixel*Frame)                       : 0.250
Stream size                              : 771 MiB (57%)
Writing library                          : x264 core 130 r2273
Encoding settings                        : cabac=1 / ref=2 / deblock=1:0:0 / analyse=0x1:0x131 / me=hex / subme=7 / psy=1 / psy_rd=1.00:0.00 / mixed_ref=0 / me_range=16 / chroma_me=1 / trellis=1 / 8x8dct=0 / cqm=0 / deadzone=21,11 / fast_pskip=1 / chroma_qp_offset=-2 / threads=3 / lookahead_threads=1 / sliced_threads=0 / nr=0 / decimate=1 / interlaced=0 / bluray_compat=0 / constrained_intra=0 / bframes=3 / b_pyramid=0 / b_adapt=1 / b_bias=0 / direct=3 / weightb=1 / open_gop=0 / weightp=2 / keyint=230 / keyint_min=23 / scenecut=40 / intra_refresh=0 / rc_lookahead=40 / rc=abr / mbtree=1 / bitrate=1300 / ratetol=1.0 / qcomp=0.60 / qpmin=10 / qpmax=69 / qpstep=4 / vbv_maxrate=24000 / vbv_bufsize=24000 / nal_hrd=none / ip_ratio=1.40 / aq=1:1.00
Language                                 : Italian
Default                                  : Yes
Forced                                   : No
DURATION                                 : 01:24:58.844000000
NUMBER_OF_FRAMES                         : 122250
NUMBER_OF_BYTES                          : 7205910648
_STATISTICS_WRITING_APP                  : mkvmerge v9.5.0 ('Quiet Fire') 64bit
_STATISTICS_WRITING_DATE_UTC             : 2018-04-12 13:57:20
_STATISTICS_TAGS                         : BPS DURATION NUMBER_OF_FRAMES NUMBER_OF_BYTES

Audio #1
ID                                       : 2
Format                                   : AC-3
Format/Info                              : Audio Coding 3
Mode extension                           : CM (complete main)
Codec ID                                 : A_AC3
Duration                                 : 1h 24mn
Bit rate mode                            : Constant
Bit rate                                 : 448 Kbps
Channel(s)                               : 6 channels
Channel positions                        : Front: L C R, Side: L R, LFE
Sampling rate                            : 48.0 KHz
Bit depth                                : 16 bits
Compression mode                         : Lossy
Delay relative to video                  : -5ms
Stream size                              : 272 MiB (20%)
Title                                    : Ac3 ita 5.1
Language                                 : Italian
Default                                  : Yes
Forced                                   : No
DURATION                                 : 01:24:57.184000000
NUMBER_OF_FRAMES                         : 159287
NUMBER_OF_BYTES                          : 285442304
_STATISTICS_WRITING_APP                  : mkvmerge v9.5.0 ('Quiet Fire') 64bit
_STATISTICS_WRITING_DATE_UTC             : 2018-04-12 13:57:20
_STATISTICS_TAGS                         : BPS DURATION NUMBER_OF_FRAMES NUMBER_OF_BYTES

Audio #2
ID                                       : 3
Format                                   : AC-3
Format/Info                              : Audio Coding 3
Mode extension                           : CM (complete main)
Codec ID                                 : A_AC3
Duration                                 : 1h 24mn
Bit rate mode                            : Constant
Bit rate                                 : 448 Kbps
Channel(s)                               : 6 channels
Channel positions                        : Front: L C R, Side: L R, LFE
Sampling rate                            : 48.0 KHz
Bit depth                                : 16 bits
Compression mode                         : Lossy
Delay relative to video                  : -5ms
Stream size                              : 272 MiB (20%)
Title                                    : AC3 SPA
Language                                 : Spanish
Default                                  : No
Forced                                   : No
DURATION                                 : 01:24:58.944000000
NUMBER_OF_FRAMES                         : 159342
NUMBER_OF_BYTES                          : 407915520
_STATISTICS_WRITING_APP                  : mkvmerge v9.5.0 ('Quiet Fire') 64bit
_STATISTICS_WRITING_DATE_UTC             : 2018-04-12 13:57:20
_STATISTICS_TAGS                         : BPS DURATION NUMBER_OF_FRAMES NUMBER_OF_BYTES

Menu
00:00:00.000                             : :00:00:00.000
00:04:23.305                             : :00:04:23.305
00:10:52.485                             : :00:10:52.485
00:17:06.984                             : :00:17:06.984
00:22:32.351                             : :00:22:32.351
00:27:33.151                             : :00:27:33.151
00:33:01.396                             : :00:33:01.396
00:36:20.762                             : :00:36:20.762
00:43:11.380                             : :00:43:11.380
00:50:25.773                             : :00:50:25.773
00:55:26.907                             : :00:55:26.907
00:59:23.226                             : :00:59:23.226
01:05:02.857                             : :01:05:02.857
01:14:30.716                             : :01:14:30.716
01:17:35.276                             : :01:17:35.276


[/spoiler]



Info: Per scaricare devi usare un client come uTorrent o Transmission
AnnounceURL
udp://tracker.coppersurfer.tk:6969/announce
Hash 187474e72265dd63a580407dec2645cb16ce8503
Peers seeds: 84 , leech: 9
Size 1.31 GB
Completato 1326x
Aggiunto 03.05.18 - 19:05:15
Uploader   robbyrs
Votazione (Voti: 0)


Condividi questo bittorrent:


html/blog:


bbcode/forum:




Aggiungi Commento
Ultimi commenti
  
grazieeeeeeeee
04/05 02.26
Tutti commenti (1)


counter