* Dettagli Torrent   globale  | Commenti (2) 


- Insidious 4 L ultima chiave (2018).720p.H264.italian.English.Ac3-5.1.sub.ita.MIRCrew -


Download via torrent:
Categoria bittorrent BDRip
Descrizione
Insidious: The Last Key  - Insidious 4 L ultima chiave (201.720p.H264.italian.English.Ac3-5.1.sub.ita.MIRCrew


NO FOUND ONLY ORIGINAL RELEASE



My release is always in double track audio italian and Original audio
for select it use VLC or dvd player home
not use wmp

Insidious 4 L'ultima chiave

Insidious: The Last Key


(201

Quality MIRCrew on HD 720p da  2,0 gb








GENERE: Horror, Thriller
ANNO: 2018
REGIA: Adam Robitel
PAESE: USA
DURATA: 103 Min



Lin Shaye, Kirk Acevedo, Spencer Locke, Josh Stewart, Angus Sampson, Javier Botet, Bruce Davison, Hana Hayes, Leigh Whannell, Caitlin Gerard, Marcus Henderson, Tessa Ferrer



Lin Shaye torna nei panni della dottoressa Elise Rainier, la brillante parapsicologa che impiega la sua capacità di contattare i morti per aiutare le persone tormentate da entità sovrannaturali. Insidious 4: L'ultima chiave mostra le origini della medium protagonista della fortunata saga horror, la sua infanzia nel New Mexico segnata dalla presenza di "un uomo malvagio che la perseguita".



Parapsychologist Dr. Elise Rainier faces her most fearsome and personal haunting yet, as she is drawn back to her ghostly childhood home, where the terror began.









[spoiler]
General
General
Unique ID                                : 173253082088615139180204729861338688335 (0x82575472B338A88089793902FE31EB4F)
Complete name                            : Insidious L'ultima chiave - Insidious The Last Key (201.720p.h264.ita.eng.sub.ita.eng - MIRCrew\Insidious L'ultima chiave - Insidious The Last Key)  (201.720p.h264.ita.eng.sub.ita.eng - MIRCrew.mkv
Format                                   : Matroska
Format version                           : Version 2
File size                                : 1.92 GiB
Duration                                 : 1h 43mn
Overall bit rate                         : 2 653 Kbps
Movie name                               : MIRCrew
Encoded date                             : UTC 2018-05-02 12:54:55
Writing application                      : mkvmerge v5.4.0 ('Piper') built on Mar 10 2012 13:34:39
Writing library                          : Lavf54.63.100

Video
ID                                       : 1
Format                                   : AVC
Format/Info                              : Advanced Video Codec
Format profile                           : [email protected]
Format settings, CABAC                   : Yes
Format settings, ReFrames                : 2 frames
Codec ID                                 : V_MPEG4/ISO/AVC
Duration                                 : 1h 43mn
Bit rate                                 : 1 900 Kbps
Width                                    : 1 280 pixels
Height                                   : 528 pixels
Display aspect ratio                     : 2.40:1
Frame rate mode                          : Variable
Frame rate                               : 23.976 fps
Color space                              : YUV
Chroma subsampling                       : 4:2:0
Bit depth                                : 8 bits
Scan type                                : Progressive
Bits/(Pixel*Frame)                       : 0.117
Stream size                              : 1.32 GiB (69%)
Writing library                          : x264 core 130 r2273
Encoding settings                        : cabac=1 / ref=2 / deblock=1:0:0 / analyse=0x1:0x131 / me=hex / subme=7 / psy=1 / psy_rd=1.00:0.00 / mixed_ref=0 / me_range=16 / chroma_me=1 / trellis=1 / 8x8dct=0 / cqm=0 / deadzone=21,11 / fast_pskip=1 / chroma_qp_offset=-2 / threads=3 / lookahead_threads=1 / sliced_threads=0 / nr=0 / decimate=1 / interlaced=0 / bluray_compat=0 / constrained_intra=0 / bframes=3 / b_pyramid=0 / b_adapt=1 / b_bias=0 / direct=3 / weightb=1 / open_gop=0 / weightp=2 / keyint=230 / keyint_min=23 / scenecut=40 / intra_refresh=0 / rc_lookahead=40 / rc=abr / mbtree=1 / bitrate=1900 / ratetol=1.0 / qcomp=0.60 / qpmin=10 / qpmax=69 / qpstep=4 / vbv_maxrate=24000 / vbv_bufsize=24000 / nal_hrd=none / ip_ratio=1.40 / aq=1:1.00
Language                                 : Italian
Default                                  : Yes
Forced                                   : No
DURATION                                 : 01:43:24.157000000
NUMBER_OF_FRAMES                         : 148751
NUMBER_OF_BYTES                          : 6422092910
_STATISTICS_WRITING_APP                  : mkvmerge v15.0.0 ('Duel with the Devil') 64-bit
_STATISTICS_WRITING_DATE_UTC             : 2018-04-27 17:55:49
_STATISTICS_TAGS                         : BPS DURATION NUMBER_OF_FRAMES NUMBER_OF_BYTES

Audio #1
ID                                       : 2
Format                                   : AC-3
Format/Info                              : Audio Coding 3
Mode extension                           : CM (complete main)
Codec ID                                 : A_AC3
Duration                                 : 1h 43mn
Bit rate mode                            : Constant
Bit rate                                 : 384 Kbps
Channel(s)                               : 6 channels
Channel positions                        : Front: L C R, Side: L R, LFE
Sampling rate                            : 48.0 KHz
Bit depth                                : 16 bits
Compression mode                         : Lossy
Delay relative to video                  : -5ms
Stream size                              : 284 MiB (14%)
Title                                    : Ita Ac3 5.1
Language                                 : Italian
Default                                  : Yes
Forced                                   : No
DURATION                                 : 01:43:24.256000000
NUMBER_OF_FRAMES                         : 193883
NUMBER_OF_BYTES                          : 297804288
_STATISTICS_WRITING_APP                  : mkvmerge v15.0.0 ('Duel with the Devil') 64-bit
_STATISTICS_WRITING_DATE_UTC             : 2018-04-27 17:55:49
_STATISTICS_TAGS                         : BPS DURATION NUMBER_OF_FRAMES NUMBER_OF_BYTES

Audio #2
ID                                       : 3
Format                                   : AC-3
Format/Info                              : Audio Coding 3
Mode extension                           : CM (complete main)
Codec ID                                 : A_AC3
Duration                                 : 1h 43mn
Bit rate mode                            : Constant
Bit rate                                 : 384 Kbps
Channel(s)                               : 6 channels
Channel positions                        : Front: L C R, Side: L R, LFE
Sampling rate                            : 48.0 KHz
Bit depth                                : 16 bits
Compression mode                         : Lossy
Delay relative to video                  : -5ms
Stream size                              : 284 MiB (14%)
Title                                    : eng Ac3 5.1
Language                                 : English
Default                                  : No
Forced                                   : No
DURATION                                 : 01:43:24.224000000
NUMBER_OF_FRAMES                         : 193882
NUMBER_OF_BYTES                          : 496337920
_STATISTICS_WRITING_APP                  : mkvmerge v15.0.0 ('Duel with the Devil') 64-bit
_STATISTICS_WRITING_DATE_UTC             : 2018-04-27 17:55:49
_STATISTICS_TAGS                         : BPS DURATION NUMBER_OF_FRAMES NUMBER_OF_BYTES

Menu
00:00:00.000                             : :Chapter 1
00:16:21.397                             : :Chapter 2
00:19:55.111                             : :Chapter 3
00:22:29.056                             : :Chapter 4
00:29:03.617                             : :Chapter 5
00:36:24.307                             : :Chapter 6
00:44:05.685                             : :Chapter 7
00:54:14.168                             : :Chapter 8
00:57:21.855                             : :Chapter 9
01:02:08.183                             : :Chapter 10
01:05:17.664                             : :Chapter 11
01:10:17.964                             : :Chapter 12
01:16:58.239                             : :Chapter 13
01:22:11.593                             : :Chapter 14
01:29:49.467                             : :Chapter 15
01:34:34.252                             : :Chapter 16


[/spoiler]



Info: Per scaricare devi usare un client come uTorrent o Transmission
AnnounceURL
udp://tracker.coppersurfer.tk:6969/announce
Hash e407479a8194f1bed7577ac16fab0c2475aaaae8
Peers seeds: 113 , leech: 28
Size 1.92 GB
Completato 1616x
Aggiunto 03.05.18 - 15:05:53
Uploader   robbyrs
Votazione (Voti: 1)


Condividi questo bittorrent:


html/blog:


bbcode/forum:




Aggiungi Commento
Ultimi commenti
  
thank
04/05 12.26
  
grazieeeeee
04/05 02.27
Tutti commenti (2)


counter