* Dettagli Torrent   globale  | Commenti (2) 


- Maze Runner - La rivelazione (2018).720p.H264.italian.English.Ac3-5.1.sub.ita.eng.MIRCrew -


Download via torrent:
Categoria bittorrent BDRip
Descrizione
Maze Runner: The Death Cure - Maze Runner - La rivelazione 2018.720p.H264.italian.English.Ac3-5.1.sub.ita.eng.MIRCrew


NO FOUND ONLY ORIGINAL RELEASE



My release is always in double track audio italian and Original audio
for select it use VLC or dvd player home
not use wmp

Maze Runner The Death Cure

Maze Runner - La rivelazione


2018

Quality MIRCrew on HD 720p da  2,8 gb








Titolo originale Maze Runner: The Death Cure
Lingua originale inglese
Paese di produzione Stati Uniti d'America
Anno 2018
Durata 142 min
Rapporto 2,35 : 1
Genere azione, fantascienza, thriller
Regia Wes Ball
Soggetto dal libro di James Dashner
Sceneggiatura T.S. Nowlin



   Dylan O'Brien: Thomas
   Kaya Scodelario: Teresa
   Thomas Brodie-Sangster: Newt
   Will Poulter: Gally
   Dexter Darden: Frypan
   Nathalie Emmanuel: Harriet
   Giancarlo Esposito: Jorge
   Aidan Gillen: Janson
   Walton Goggins: Lawrence
   Ki Hong Lee: Minho
   Jacob Lofland: Aris Jones
   Katherine McNamara: Sonya
   Barry Pepper: Vince
   Rosa Salazar: Brenda
   Patricia Clarkson: Ava Paige



Nell'intento di salvare Minho dalla prigionia di WCKD, Thomas e il suo gruppo di sopravvissuti del film precedente inseguono un treno carico di ragazzi: con l'aiuto di un elicottero riescono a trarre in salvo la maggior parte dei prigionieri ma Minho non si trova dentro, nonostante abbiano sentito la sua voce. Rifugiati in un porto abbandonato elusivo da WCKD, i ragazzi vengono a conoscenza di un'"Ultima Città", nonché centro operativo di WCKD, dove si pensa essere al sicuro dal virus..........................



In the epic finale to The Maze Runner Saga, Thomas leads his group of escaped Gladers on their final and most dangerous mission yet. To save their friends, they must break into the legendary last city, a WCKD controlled labyrinth that may turn out to be the deadliest maze of all............................









[spoiler]
General
Unique ID                                : 234078666439377507286993231368999172349 (0xB019E94B346820C59193B5BA4A9078FD)
Complete name                            : Maze Runner The Death Cure - Maze Runner - La rivelazione 2018.720p.h254.ita.eng.sub.ita.eng - MIRCrew\Maze Runner The Death Cure - Maze Runner - La rivelazione 2018.720p.h254.ita.eng.sub.ita.eng - MIRCrew.mkv
Format                                   : Matroska
Format version                           : Version 2
File size                                : 2.81 GiB
Duration                                 : 2h 23mn
Overall bit rate                         : 2 793 Kbps
Movie name                               : MIRCrew
Encoded date                             : UTC 2018-05-01 19:57:10
Writing application                      : mkvmerge v5.4.0 ('Piper') built on Mar 10 2012 13:34:39
Writing library                          : Lavf54.63.100
COPYRIGHT                                : robbyrs - Il Corsaronero

Video
ID                                       : 1
Format                                   : AVC
Format/Info                              : Advanced Video Codec
Format profile                           : [email protected]
Format settings, CABAC                   : Yes
Format settings, ReFrames                : 2 frames
Codec ID                                 : V_MPEG4/ISO/AVC
Duration                                 : 2h 23mn
Bit rate                                 : 1 900 Kbps
Width                                    : 1 264 pixels
Height                                   : 528 pixels
Display aspect ratio                     : 2.40:1
Frame rate mode                          : Variable
Frame rate                               : 23.976 fps
Color space                              : YUV
Chroma subsampling                       : 4:2:0
Bit depth                                : 8 bits
Scan type                                : Progressive
Bits/(Pixel*Frame)                       : 0.119
Stream size                              : 1.85 GiB (66%)
Writing library                          : x264 core 130 r2273
Encoding settings                        : cabac=1 / ref=2 / deblock=1:0:0 / analyse=0x1:0x131 / me=hex / subme=7 / psy=1 / psy_rd=1.00:0.00 / mixed_ref=0 / me_range=16 / chroma_me=1 / trellis=1 / 8x8dct=0 / cqm=0 / deadzone=21,11 / fast_pskip=1 / chroma_qp_offset=-2 / threads=3 / lookahead_threads=1 / sliced_threads=0 / nr=0 / decimate=1 / interlaced=0 / bluray_compat=0 / constrained_intra=0 / bframes=3 / b_pyramid=0 / b_adapt=1 / b_bias=0 / direct=3 / weightb=1 / open_gop=0 / weightp=2 / keyint=230 / keyint_min=23 / scenecut=40 / intra_refresh=0 / rc_lookahead=40 / rc=abr / mbtree=1 / bitrate=1900 / ratetol=1.0 / qcomp=0.60 / qpmin=10 / qpmax=69 / qpstep=4 / vbv_maxrate=24000 / vbv_bufsize=24000 / nal_hrd=none / ip_ratio=1.40 / aq=1:1.00
Language                                 : Italian
Default                                  : Yes
Forced                                   : No
DURATION                                 : 02:23:52.332000000
NUMBER_OF_FRAMES                         : 206969
NUMBER_OF_BYTES                          : 10289727125
_STATISTICS_WRITING_APP                  : mkvmerge v9.7.1 ('Pandemonium') 64bit
_STATISTICS_WRITING_DATE_UTC             : 2018-04-26 05:24:39
_STATISTICS_TAGS                         : BPS DURATION NUMBER_OF_FRAMES NUMBER_OF_BYTES

Audio #1
ID                                       : 2
Format                                   : AC-3
Format/Info                              : Audio Coding 3
Mode extension                           : CM (complete main)
Codec ID                                 : A_AC3
Duration                                 : 2h 23mn
Bit rate mode                            : Constant
Bit rate                                 : 448 Kbps
Channel(s)                               : 6 channels
Channel positions                        : Front: L C R, Side: L R, LFE
Sampling rate                            : 48.0 KHz
Bit depth                                : 16 bits
Compression mode                         : Lossy
Delay relative to video                  : -5ms
Stream size                              : 461 MiB (16%)
Title                                    : Ita
Language                                 : Italian
Default                                  : No
Forced                                   : No
DURATION                                 : 02:23:52.640000000
NUMBER_OF_FRAMES                         : 269770
NUMBER_OF_BYTES                          : 690611200
_STATISTICS_WRITING_APP                  : mkvmerge v9.7.1 ('Pandemonium') 64bit
_STATISTICS_WRITING_DATE_UTC             : 2018-04-26 05:24:39
_STATISTICS_TAGS                         : BPS DURATION NUMBER_OF_FRAMES NUMBER_OF_BYTES

Audio #2
ID                                       : 3
Format                                   : AC-3
Format/Info                              : Audio Coding 3
Mode extension                           : CM (complete main)
Codec ID                                 : A_AC3
Duration                                 : 2h 23mn
Bit rate mode                            : Constant
Bit rate                                 : 448 Kbps
Channel(s)                               : 6 channels
Channel positions                        : Front: L C R, Side: L R, LFE
Sampling rate                            : 48.0 KHz
Bit depth                                : 16 bits
Compression mode                         : Lossy
Delay relative to video                  : -5ms
Stream size                              : 461 MiB (16%)
Title                                    : Eng
Language                                 : English
Default                                  : No
Forced                                   : No
DURATION                                 : 02:23:52.630000000
NUMBER_OF_FRAMES                         : 809309
NUMBER_OF_BYTES                          : 1628329828
_STATISTICS_WRITING_APP                  : mkvmerge v9.7.1 ('Pandemonium') 64bit
_STATISTICS_WRITING_DATE_UTC             : 2018-04-26 05:24:39
_STATISTICS_TAGS                         : BPS DURATION NUMBER_OF_FRAMES NUMBER_OF_BYTES

Menu
00:00:00.000                             : 01)00:00:00:000
00:11:31.607                             : 02)00:11:31:607
00:15:59.750                             : 03)00:15:59:750
00:20:08.457                             : 04)00:20:08:457
00:24:34.890                             : 05)00:24:34:890
00:30:40.547                             : 06)00:30:40:547
00:36:47.330                             : 07)00:36:47:330
00:43:15.342                             : 000:43:15:342
00:48:06.341                             : 09)00:48:06:341
00:55:17.397                             : 10)00:55:17:397
01:02:42.925                             : 11)01:02:42:925
01:07:14.488                             : 12)01:07:14:488
01:11:56.061                             : 13)01:11:56:061
01:15:48.210                             : 14)01:15:48:210
01:23:20.328                             : 15)01:23:20:328
01:29:45.421                             : 16)01:29:45:421
01:34:00.593                             : 17)01:34:00:593
01:40:09.795                             : 101:40:09:795
01:43:33.081                             : 19)01:43:33:081
01:53:38.645                             : 20)01:53:38:645
01:59:43.885                             : 21)01:59:43:885
02:04:49.398                             : 22)02:04:49:398
02:10:03.086                             : 23)02:10:03:086
02:18:03.858                             : 24)02:18:03:858
02:23:52.373                             : 25)02:23:52:373


[/spoiler]



Info: Per scaricare devi usare un client come uTorrent o Transmission
AnnounceURL
udp://tracker.coppersurfer.tk:6969/announce
Hash ddc0ad3a48c87585bed1d0b1b9077b362135c739
Peers seeds: 207 , leech: 53
Size 2.81 GB
Completato 4148x
Aggiunto 02.05.18 - 18:05:12
Uploader   robbyrs
Votazione (Voti: 0)


Condividi questo bittorrent:


html/blog:


bbcode/forum:




Aggiungi Commento
Ultimi commenti
  
grazie
03/05 11.15
 jackal98jackal98   
Grazie
03/05 08.39
Tutti commenti (2)


counter