* Dettagli Torrent   globale  | Commenti (0) 


- Il Premio (2017).H264.italian.Ac3-5.1.sub.NUita.MIRCrew -


Download via torrent:
Categoria bittorrent BDRip
Descrizione
Il Premio (2017).H264.italian.Ac3-5.1.sub.NUita.MIRCrew

NO FOUND ONLY ORIGINAL RELEASE





My release is always in double track audio italian and Original audio
for select it use VLC or dvd player home
not use wmp

SOTTOTITOLI PER NON UDENTI INCLUSI

Il Premio

(2017)







GENERE: Commedia
ANNO: 2017
REGIA: Alessandro Gassmann
PAESE: Italia
DURATA: 100 Min



Gigi Proietti, Alessandro Gassmann, Anna Foglietta, Rocco Papaleo, Matilda De Angelis, Erika Blanc, Andrea Jonasson, Marco Zitelli



Il terrore dell'aereo e la prospettiva di un volo cadenzato da scossoni e turbolenze, convincono Giovanni Passamonte (Gigi Proietti) incensato scrittore di fama internazionale, a intraprendere un lungo viaggio in auto fino in Svezia. Destinazione: Stoccolma, Sala dei concerti, per la cerimonia di consegna dei premi Nobel................



The terror of the plane and the prospect of a flight that is jolted by jolts and turbulence, convince Giovanni Passamonte (Gigi Proietti) a well-known writer of international fame, to undertake a long journey by car to Sweden. Destination: Stockholm, Concert Hall, for the Nobel Prize ceremony ................











[spoiler]
General
Unique ID                                : 220247845694043158119763197284409445987 (0xA5B2312ED5BB569A02FE812768008E63)
Complete name                            : Il Premio (2017).h264.ita.sub.NUita - MIRCrew\Il Premio (2017).h264.ita.sub.ita - MIRCrew.mkv
Format                                   : Matroska
Format version                           : Version 2
File size                                : 1.20 GiB
Duration                                 : 1h 39mn
Overall bit rate                         : 1 728 Kbps
Movie name                               : MIRCrew
Encoded date                             : UTC 2018-04-25 14:54:59
Writing application                      : Lavf54.63.100
Writing library                          : Lavf54.63.100

Video
ID                                       : 1
Format                                   : AVC
Format/Info                              : Advanced Video Codec
Format profile                           : [email protected]
Format settings, CABAC                   : Yes
Format settings, ReFrames                : 2 frames
Codec ID                                 : V_MPEG4/ISO/AVC
Duration                                 : 1h 39mn
Bit rate                                 : 1 280 Kbps
Width                                    : 720 pixels
Height                                   : 304 pixels
Display aspect ratio                     : 2.40:1
Original display aspect ratio            : 2.40:1
Frame rate mode                          : Variable
Frame rate                               : 23.976 fps
Color space                              : YUV
Chroma subsampling                       : 4:2:0
Bit depth                                : 8 bits
Scan type                                : Progressive
Bits/(Pixel*Frame)                       : 0.244
Stream size                              : 882 MiB (72%)
Writing library                          : x264 core 130 r2273
Encoding settings                        : cabac=1 / ref=2 / deblock=1:0:0 / analyse=0x1:0x131 / me=hex / subme=7 / psy=1 / psy_rd=1.00:0.00 / mixed_ref=0 / me_range=16 / chroma_me=1 / trellis=1 / 8x8dct=0 / cqm=0 / deadzone=21,11 / fast_pskip=1 / chroma_qp_offset=-2 / threads=3 / lookahead_threads=1 / sliced_threads=0 / nr=0 / decimate=1 / interlaced=0 / bluray_compat=0 / constrained_intra=0 / bframes=3 / b_pyramid=0 / b_adapt=1 / b_bias=0 / direct=3 / weightb=1 / open_gop=0 / weightp=2 / keyint=230 / keyint_min=23 / scenecut=40 / intra_refresh=0 / rc_lookahead=40 / rc=abr / mbtree=1 / bitrate=1280 / ratetol=1.0 / qcomp=0.60 / qpmin=10 / qpmax=69 / qpstep=4 / vbv_maxrate=24000 / vbv_bufsize=24000 / nal_hrd=none / ip_ratio=1.40 / aq=1:1.00
Language                                 : Italian
Default                                  : Yes
Forced                                   : No
DURATION                                 : 01:39:01.060000000
NUMBER_OF_FRAMES                         : 142443
NUMBER_OF_BYTES                          : 7380389980
_STATISTICS_WRITING_APP                  : mkvmerge v9.5.0 ('Quiet Fire') 64bit
_STATISTICS_WRITING_DATE_UTC             : 2018-04-09 13:18:40
_STATISTICS_TAGS                         : BPS DURATION NUMBER_OF_FRAMES NUMBER_OF_BYTES

Audio
ID                                       : 2
Format                                   : AC-3
Format/Info                              : Audio Coding 3
Mode extension                           : CM (complete main)
Codec ID                                 : A_AC3
Duration                                 : 1h 39mn
Bit rate mode                            : Constant
Bit rate                                 : 448 Kbps
Channel(s)                               : 6 channels
Channel positions                        : Front: L C R, Side: L R, LFE
Sampling rate                            : 48.0 KHz
Bit depth                                : 16 bits
Compression mode                         : Lossy
Delay relative to video                  : 1mn 5s
Stream size                              : 317 MiB (26%)
Title                                    : AC3 ITA
Language                                 : Italian
Default                                  : No
Forced                                   : No
DURATION                                 : 01:39:01.120000000
NUMBER_OF_FRAMES                         : 185660
NUMBER_OF_BYTES                          : 475289600
_STATISTICS_WRITING_APP                  : mkvmerge v9.5.0 ('Quiet Fire') 64bit
_STATISTICS_WRITING_DATE_UTC             : 2018-04-09 13:18:40
_STATISTICS_TAGS                         : BPS DURATION NUMBER_OF_FRAMES NUMBER_OF_BYTES

Menu
00:00:00.000                             : :00:00:00.000
00:07:05.342                             : :00:07:05.342
00:14:28.201                             : :00:14:28.201
00:20:13.838                             : :00:20:13.838
00:29:27.099                             : :00:29:27.099
00:39:02.590                             : :00:39:02.590
00:50:56.804                             : :00:50:56.804
00:59:52.756                             : :00:59:52.756
01:08:53.129                             : :01:08:53.129
01:16:19.950                             : :01:16:19.950
01:25:27.706                             : :01:25:27.706
01:35:23.259                             : :01:35:23.259



[/spoiler]



Info: Per scaricare devi usare un client come uTorrent o Transmission
AnnounceURL
udp://tracker.coppersurfer.tk:6969/announce
Hash 475544a0feb348e0a0a0e87cf9cf0c607b24fecc
Peers seeds: 153 , leech: 52
Size 1.20 GB
Completato 1233x
Aggiunto 02.05.18 - 17:05:50
Uploader   robbyrs
Votazione (Voti: 2)


Condividi questo bittorrent:


html/blog:


bbcode/forum:




Aggiungi Commento


counter