* Dettagli Torrent   globale  | Commenti (0) 


- Game Over Man (2018).H264.italian.english.Ac3-5.1.sub.ita.MIRCrew -


Download via torrent:
Categoria bittorrent BDRip
Descrizione
Game Over Man 2018.H264.italian.english.Ac3-5.1.sub.ita.MIRCrew


NO FOUND ONLY ORIGINAL RELEASE




My release is always in double track audio italian and Original audio
for select it use VLC or dvd player home
not use wmp

Game Over Man

2018








Paese di produzione Stati Uniti d'America
Anno 2018
Durata 101 min
Genere azione, commedia
Regia Kyle Newacheck
Sceneggiatura Anders Holm, Kyle Newacheck, Adam DeVine, Blake Anderson
Produttore Adam DeVine, Anders Holm,



   Adam DeVine: Alexxx
   Anders Holm: Darren
   Blake Anderson: Joel
   Utkarsh Ambudkar: Bae Awadi
   Aya Cash: Cassie
   Neal McDonough: Conrad
   Daniel Stern: Mitch
   Jamie Demetriou: Mr. Ahmad
   Rhona Mitra: Erma
   Sam Richardson: Donald
   Steve Howey: Rich



Tre amici sono sul punto di ottenere il finanziamento del loro videogioco quando il loro benefattore viene preso in ostaggio dai terroristi in uno scenario di tipo Die Hard.



Three friends are on the verge of getting their video game financed when their benefactor is taken hostage by terrorists.













[spoiler]
General
Unique ID                                : 240752679593715038666771276882140123461 (0xB51F478C239002FBACD238734056D145)
Complete name                            : Game Over Man 2018.H264.ita.eng.sub.ita - MIRCrew\Game Over Man 2018.H264.ita.eng.sub.ita - MIRCrew.mkv
Format                                   : Matroska
Format version                           : Version 2
File size                                : 1.55 GiB
Duration                                 : 1h 41mn
Overall bit rate                         : 2 185 Kbps
Movie name                               : MIRCrew
Encoded date                             : UTC 2018-03-23 12:08:35
Writing application                      : mkvmerge v5.4.0 ('Piper') built on Mar 10 2012 13:34:39
Writing library                          : Lavf54.63.100
COPYRIGHT                                : robbyrs - Il Corsaronero

Video
ID                                       : 1
Format                                   : AVC
Format/Info                              : Advanced Video Codec
Format profile                           : [email protected]
Format settings, CABAC                   : Yes
Format settings, ReFrames                : 2 frames
Codec ID                                 : V_MPEG4/ISO/AVC
Duration                                 : 1h 41mn
Bit rate                                 : 1 300 Kbps
Width                                    : 720 pixels
Height                                   : 300 pixels
Display aspect ratio                     : 2.40:1
Frame rate mode                          : Variable
Frame rate                               : 23.976 fps
Color space                              : YUV
Chroma subsampling                       : 4:2:0
Bit depth                                : 8 bits
Scan type                                : Progressive
Bits/(Pixel*Frame)                       : 0.251
Stream size                              : 906 MiB (57%)
Writing library                          : x264 core 130 r2273
Encoding settings                        : cabac=1 / ref=2 / deblock=1:0:0 / analyse=0x1:0x131 / me=hex / subme=7 / psy=1 / psy_rd=1.00:0.00 / mixed_ref=0 / me_range=16 / chroma_me=1 / trellis=1 / 8x8dct=0 / cqm=0 / deadzone=21,11 / fast_pskip=1 / chroma_qp_offset=-2 / threads=3 / lookahead_threads=1 / sliced_threads=0 / nr=0 / decimate=1 / interlaced=0 / bluray_compat=0 / constrained_intra=0 / bframes=3 / b_pyramid=0 / b_adapt=1 / b_bias=0 / direct=3 / weightb=1 / open_gop=0 / weightp=2 / keyint=230 / keyint_min=23 / scenecut=40 / intra_refresh=0 / rc_lookahead=40 / rc=abr / mbtree=1 / bitrate=1300 / ratetol=1.0 / qcomp=0.60 / qpmin=10 / qpmax=69 / qpstep=4 / vbv_maxrate=24000 / vbv_bufsize=24000 / nal_hrd=none / ip_ratio=1.40 / aq=1:1.00
Language                                 : Italian
Default                                  : Yes
Forced                                   : No
DURATION                                 : 01:41:40.678000000
NUMBER_OF_FRAMES                         : 146270
NUMBER_OF_BYTES                          : 7529492417
_STATISTICS_WRITING_APP                  : mkvmerge v7.4.0 ('Circles') 32bit built on Dec 12 2014 12:10:09
_STATISTICS_WRITING_DATE_UTC             : 2018-03-23 12:08:35
_STATISTICS_TAGS                         : BPS DURATION NUMBER_OF_FRAMES NUMBER_OF_BYTES

Audio #1
ID                                       : 2
Format                                   : AC-3
Format/Info                              : Audio Coding 3
Mode extension                           : CM (complete main)
Codec ID                                 : A_AC3
Duration                                 : 1h 41mn
Bit rate mode                            : Constant
Bit rate                                 : 448 Kbps
Channel(s)                               : 6 channels
Channel positions                        : Front: L C R, Side: L R, LFE
Sampling rate                            : 48.0 KHz
Bit depth                                : 16 bits
Compression mode                         : Lossy
Delay relative to video                  : -5ms
Stream size                              : 326 MiB (21%)
Title                                    : Ita Ac3
Language                                 : Italian
Default                                  : Yes
Forced                                   : No
DURATION                                 : 01:41:40.672000000
NUMBER_OF_FRAMES                         : 190646
NUMBER_OF_BYTES                          : 341637632
_STATISTICS_WRITING_APP                  : mkvmerge v7.4.0 ('Circles') 32bit built on Dec 12 2014 12:10:09
_STATISTICS_WRITING_DATE_UTC             : 2018-03-23 12:08:35
_STATISTICS_TAGS                         : BPS DURATION NUMBER_OF_FRAMES NUMBER_OF_BYTES

Audio #2
ID                                       : 3
Format                                   : AC-3
Format/Info                              : Audio Coding 3
Mode extension                           : CM (complete main)
Codec ID                                 : A_AC3
Duration                                 : 1h 41mn
Bit rate mode                            : Constant
Bit rate                                 : 448 Kbps
Channel(s)                               : 6 channels
Channel positions                        : Front: L C R, Side: L R, LFE
Sampling rate                            : 48.0 KHz
Bit depth                                : 16 bits
Compression mode                         : Lossy
Delay relative to video                  : -5ms
Stream size                              : 326 MiB (21%)
Title                                    : eng Ac3
Language                                 : English
Default                                  : No
Forced                                   : No
DURATION                                 : 01:41:40.640000000
NUMBER_OF_FRAMES                         : 190645
NUMBER_OF_BYTES                          : 292830720
_STATISTICS_WRITING_APP                  : mkvmerge v7.4.0 ('Circles') 32bit built on Dec 12 2014 12:10:09
_STATISTICS_WRITING_DATE_UTC             : 2018-03-23 12:08:35
_STATISTICS_TAGS                         : BPS DURATION NUMBER_OF_FRAMES NUMBER_OF_BYTES


[/spoiler]



Info: Per scaricare devi usare un client come uTorrent o Transmission
AnnounceURL
udp://tracker.coppersurfer.tk:6969/announce
Hash 40fc2c4f27fa0255c8d4683f6a35bf392341717d
Peers seeds: 209 , leech: 60
Size 1.55 GB
Completato 1695x
Aggiunto 01.05.18 - 20:05:23
Uploader   robbyrs
Votazione (Voti: 1)


Condividi questo bittorrent:


html/blog:


bbcode/forum:




Aggiungi Commento


counter