* Dettagli Torrent   globale  | Commenti (0) 


- Safe (2012) Jason Statham.XviD.italian.english.Ac3-5.1.sub.ita.MIRCrew -


Download via torrent:
Categoria bittorrent BDRip
Descrizione
Safe (2012) Jason Statham.XviD.italian.english.Ac3-5.1.sub.ita.MIRCrew


NO FOUND ONLY ORIGINAL RELEASE




My release is always in double track audio italian and Original audio
for select it use VLC or dvd player home
not use wmp

Safe

(2012)








Titolo originale Safe
Lingua originale inglese, cinese, russo
Paese di produzione Stati Uniti
Anno 2012
Durata 94 min
Rapporto 2.35 : 1
Genere thriller, azione
Regia Boaz Yakin
Soggetto Boaz Yakin
Sceneggiatura Boaz Yakin
Produttore Lawrence Bender, Dana Brunetti



   Jason Statham: Luke Wright
   Catherine Chang: Mei
   Robert John Burke: capitano Wolf
   James Hong: Han Jiao
   Anson Mount: Alex Rosen
   Chris Sarandon: Sindaco Tremello
   Sándor Técsy: Emile Docheski
   Joseph Sikora: Vassily Docheski
   Igor' Žižikin: Chemyakin
   Reggie Lee: Quan Chang
   James Colby: Detective Mears
   Matt O'Toole: Detective Lasky
   Jack Gwaltney: Detective Reddick
   Barry Bradford: Detective Benoit
   Jay Giannone: Detective Kolfax



Luke Wright è un ex agente speciale della NYPD che per mantenere la famiglia partecipa a incontri di arti marziali miste di seconda categoria e.................



Mei, a young girl whose memory holds a priceless numerical code, finds herself pursued by the Triads, the Russian mob, and corrupt NYC cops. Coming to her aid is an ex-cage fighter whose life was destroyed by the gangsters on Mei's trail.











[spoiler]
General
Complete name                            : Safe (2012).ita.eng.sub.ita.MIRcrew\Safe (2012).ita.eng.sub.ita.MIRcrew.avi
Format                                   : AVI
Format/Info                              : Audio Video Interleave
File size                                : 1.12 GiB
Duration                                 : 1h 30mn
Overall bit rate                         : 1 776 Kbps
Writing application                      : VirtualDubMod 1.5.10.2 (build 2540/release)
Writing library                          : VirtualDubMod build 2540/release

Video
ID                                       : 0
Format                                   : xvid
Codec ID                                 : xvid
Duration                                 : 1h 30mn
Bit rate                                 : 994 Kbps
Width                                    : 720 pixels
Height                                   : 304 pixels
Display aspect ratio                     : 2.35:1
Frame rate                               : 25.000 fps
Bits/(Pixel*Frame)                       : 0.182
Stream size                              : 643 MiB (56%)

Audio #1
ID                                       : 1
Format                                   : AC-3
Format/Info                              : Audio Coding 3
Mode extension                           : CM (complete main)
Codec ID                                 : 2000
Duration                                 : 1h 30mn
Bit rate mode                            : Constant
Bit rate                                 : 384 Kbps
Channel(s)                               : 6 channels
Channel positions                        : Front: L C R, Side: L R, LFE
Sampling rate                            : 48.0 KHz
Bit depth                                : 16 bits
Compression mode                         : Lossy
Stream size                              : 248 MiB (22%)
Alignment                                : Split accross interleaves
Interleave, duration                     : 40 ms (1.00 video frame)
Interleave, preload duration             : 500 ms

Audio #2
ID                                       : 2
Format                                   : AC-3
Format/Info                              : Audio Coding 3
Mode extension                           : CM (complete main)
Codec ID                                 : 2000
Duration                                 : 1h 30mn
Bit rate mode                            : Constant
Bit rate                                 : 384 Kbps
Channel(s)                               : 6 channels
Channel positions                        : Front: L C R, Side: L R, LFE
Sampling rate                            : 48.0 KHz
Bit depth                                : 16 bits
Compression mode                         : Lossy
Stream size                              : 248 MiB (22%)
Alignment                                : Split accross interleaves
Interleave, duration                     : 40 ms (1.00 video frame)
Interleave, preload duration             : 500 ms


[/spoiler]



Info: Per scaricare devi usare un client come uTorrent o Transmission
AnnounceURL
udp://tracker.coppersurfer.tk:6969/announce
Hash 2d7ab383873339e75b20db60d4fab38412d20a62
Peers seeds: 33 , leech: 7
Size 1.13 GB
Completato 1201x
Aggiunto 14.04.18 - 15:04:33
Uploader   robbyrs
Votazione (Voti: 0)


Condividi questo bittorrent:


html/blog:


bbcode/forum:




Aggiungi Commento


counter