* Dettagli Torrent   globale  | Commenti (2) 


- Bad Moms 2: Mamme molto piu cattive (2017).H264.italian.english.Ac3-5.1.sub.ita.MIRCrew -


Download via torrent:
Categoria bittorrent BDRip
Descrizione
A Bad Moms Christmas - Bad Moms 2: Mamme molto piu cattive (2017).H264.italian.english.Ac3-5.1.sub.ita.MIRCrew


NO FOUND ONLY ORIGINAL RELEASE




My release is always in double track audio italian and Original audio
for select it use VLC or dvd player home
not use wmp

A Bad Moms Christmas

Bad Moms 2: Mamme molto piu cattive

(2017)









GENERE: Commedia
ANNO: 2017
REGIA: Jon Lucas, Scott Moore
PAESE: USA
DURATA: 104 Min



Mila Kunis, Kristen Bell, Kathryn Hahn, Jay Hernandez, Christine Baranski, Oona Laurence, Susan Sarandon, Justin Hartley, David Walton, Peter Gallagher, Cheryl Hines, Wanda Sykes, Emjay Anthony



Sequel dell'irriverente commedia con Mila Kunis sulla genitorialità imperfetta e ribelle, che rifiuta le convenzioni forzate in favore di un approccio più leggero e spontaneo.



As their own mothers drop in unexpectedly, our three under-appreciated and over-burdened moms rebel against the challenges and expectations of the Super Bowl for mothers: Christmas.












General
Unique ID                                : 226174945632555643122177036351178938707 (0xAA27B5C599A51BB97EFEE76694E21953)
Complete name                            : Bad Moms 2 - Mamme molto piu cattive (2017).H264.ita.eng.sub.ita-MIRCrew\Bad Moms 2 - Mamme molto piu cattive (2017).H264.ita.eng.sub.ita-MIRCrew.mkv
Format                                   : Matroska
Format version                           : Version 2
File size                                : 1.59 GiB
Duration                                 : 1h 44mn
Overall bit rate                         : 2 174 Kbps
Movie name                               : MIRCrew
Encoded date                             : UTC 2018-04-12 11:04:52
Writing application                      : Lavf54.63.100
Writing library                          : Lavf54.63.100
COPYRIGHT                                : robbyrs-Il Corsaronero

Video
ID                                       : 1
Format                                   : AVC
Format/Info                              : Advanced Video Codec
Format profile                           : [email protected]1
Format settings, CABAC                   : Yes
Format settings, ReFrames                : 2 frames
Codec ID                                 : V_MPEG4/ISO/AVC
Duration                                 : 1h 44mn
Bit rate                                 : 1 280 Kbps
Width                                    : 720 pixels
Height                                   : 300 pixels
Display aspect ratio                     : 2.40:1
Frame rate mode                          : Variable
Frame rate                               : 24.000 fps
Color space                              : YUV
Chroma subsampling                       : 4:2:0
Bit depth                                : 8 bits
Scan type                                : Progressive
Bits/(Pixel*Frame)                       : 0.247
Stream size                              : 923 MiB (57%)
Writing library                          : x264 core 130 r2273
Encoding settings                        : cabac=1 / ref=2 / deblock=1:0:0 / analyse=0x1:0x131 / me=hex / subme=7 / psy=1 / psy_rd=1.00:0.00 / mixed_ref=0 / me_range=16 / chroma_me=1 / trellis=1 / 8x8dct=0 / cqm=0 / deadzone=21,11 / fast_pskip=1 / chroma_qp_offset=-2 / threads=3 / lookahead_threads=1 / sliced_threads=0 / nr=0 / decimate=1 / interlaced=0 / bluray_compat=0 / constrained_intra=0 / bframes=3 / b_pyramid=0 / b_adapt=1 / b_bias=0 / direct=3 / weightb=1 / open_gop=0 / weightp=2 / keyint=240 / keyint_min=24 / scenecut=40 / intra_refresh=0 / rc_lookahead=40 / rc=abr / mbtree=1 / bitrate=1280 / ratetol=1.0 / qcomp=0.60 / qpmin=10 / qpmax=69 / qpstep=4 / vbv_maxrate=24000 / vbv_bufsize=24000 / nal_hrd=none / ip_ratio=1.40 / aq=1:1.00
Language                                 : Italian
Default                                  : Yes
Forced                                   : No
DURATION                                 : 01:44:30.250000000
NUMBER_OF_FRAMES                         : 150486
NUMBER_OF_BYTES                          : 6128042556
_STATISTICS_WRITING_APP                  : mkvmerge v9.7.1 ('Pandemonium') 64bit
_STATISTICS_WRITING_DATE_UTC             : 2018-04-07 11:29:12
_STATISTICS_TAGS                         : BPS DURATION NUMBER_OF_FRAMES NUMBER_OF_BYTES

Audio #1
ID                                       : 2
Format                                   : AC-3
Format/Info                              : Audio Coding 3
Mode extension                           : CM (complete main)
Codec ID                                 : A_AC3
Duration                                 : 1h 44mn
Bit rate mode                            : Constant
Bit rate                                 : 448 Kbps
Channel(s)                               : 6 channels
Channel positions                        : Front: L C R, Side: L R, LFE
Sampling rate                            : 48.0 KHz
Bit depth                                : 16 bits
Compression mode                         : Lossy
Delay relative to video                  : 1mn 5s
Stream size                              : 335 MiB (21%)
Language                                 : Italian
Default                                  : No
Forced                                   : No
DURATION                                 : 01:44:30.272000000
NUMBER_OF_FRAMES                         : 195946
NUMBER_OF_BYTES                          : 501621760
_STATISTICS_WRITING_APP                  : mkvmerge v9.7.1 ('Pandemonium') 64bit
_STATISTICS_WRITING_DATE_UTC             : 2018-04-07 11:29:12
_STATISTICS_TAGS                         : BPS DURATION NUMBER_OF_FRAMES NUMBER_OF_BYTES

Audio #2
ID                                       : 3
Format                                   : AC-3
Format/Info                              : Audio Coding 3
Mode extension                           : CM (complete main)
Codec ID                                 : A_AC3
Duration                                 : 1h 44mn
Bit rate mode                            : Constant
Bit rate                                 : 448 Kbps
Channel(s)                               : 6 channels
Channel positions                        : Front: L C R, Side: L R, LFE
Sampling rate                            : 48.0 KHz
Bit depth                                : 16 bits
Compression mode                         : Lossy
Delay relative to video                  : 1mn 5s
Stream size                              : 335 MiB (21%)
Language                                 : English
Default                                  : No
Forced                                   : No
DURATION                                 : 01:44:30.294000000
NUMBER_OF_FRAMES                         : 587840
NUMBER_OF_BYTES                          : 1182734148
_STATISTICS_WRITING_APP                  : mkvmerge v9.7.1 ('Pandemonium') 64bit
_STATISTICS_WRITING_DATE_UTC             : 2018-04-07 11:29:12
_STATISTICS_TAGS                         : BPS DURATION NUMBER_OF_FRAMES NUMBER_OF_BYTES

Menu
00:00:00.000                             : 01)00:00:00:000
00:01:04.333                             : 02)00:01:04:333
00:10:15.458                             : 03)00:10:15:458
00:13:53.791                             : 04)00:13:53:791
00:23:14.250                             : 05)00:23:14:250
00:31:01.541                             : 06)00:31:01:541
00:40:14.250                             : 07)00:40:14:250
00:49:01.125                             : 000:49:01:125
00:54:03.166                             : 09)00:54:03:166
01:03:09.416                             : 10)01:03:09:416
01:13:58.541                             : 11)01:13:58:541
01:27:26.750                             : 12)01:27:26:750
01:36:11.833                             : 13)01:36:11:833






Info: Per scaricare devi usare un client come uTorrent o Transmission
AnnounceURL
udp://tracker.coppersurfer.tk:6969/announce
Hash 2500e813295c0a11a829a8adea5a384c44ffeaa2
Peers seeds: 123 , leech: 18
Size 1.59 GB
Completato 3325x
Aggiunto 14.04.18 - 12:04:20
Uploader   robbyrs
Votazione (Voti: 1)


Condividi questo bittorrent:


html/blog:


bbcode/forum:




Aggiungi Commento
Ultimi commenti
avatar   robbyrs   
certo doppio audio italiano e inglese
14/04 19.19
  
italiano??
14/04 14.48
Tutti commenti (2)


counter