Loading...
 * Dettagli Torrent   globale  | Commenti (0) 


- The Terror 1x02 - Gore.H264.italian.english.sub.ita.eng-MIRCrew -


Download via torrent:
Categoria bittorrent SerieTv
Descrizione
The Terror 1x02 - Gore.H264.italian.english.sub.ita.eng-MIRCrew



NO FOUND ONLY ORIGINAL RELEASE



My release is always in double track audio italian and Original audio
for select it use VLC or dvd player home
not use wmp

The Terror 1x02 - Gore








Genre: Drama
Based on The Terror: by Dan Simmons
Developed by David Kajganich
Directed by Edward Berger



   Jared Harris
   Tobias Menzies
   Paul Ready
   Adam Nagaitis
   Ian Hart
   Nive Nielsen
   Ciarán Hinds


Episode:

1 "Go for Broke"
2 "Gore"
3 "The Ladder"
4 "Punished, as a Boy"
5 "First Shot a Winner, Lads"
6 "A Mercy" TBA TBA
7 "Horrible from Supper"
8 "Terror Camp Clear"
9 "The C, the C, the Open C"
10 "We Are Gone"



La serie vede come protagonisti principali Jared Harris della serie TV Mad Men e la star di Outlander Tobias Menzies, nei panni di membri della Royal Navy (la Marina Militare britannica) che soccombono alla paranoia dell'isolamento durante una pericolosa missione alla scoperta del Passaggio a Nord Ovest



The crews aboard the Royal Navy's polar explorer ships HMS Erebus and HMS Terror venture into uncharted territory seeking the Northwest Passage. The ships are soon stuck, frozen and isolated; and those aboard must survive the harsh weather conditions and each other.












[spoiler]

General
General
Unique ID                                : 206270356875911635164568094146543791492 (0x9B2E39C7205435D5A70DCA7E25A8AD84)
Complete name                            : The Terror 1x02 - Gore.H264.ita.eng.sub.ita.eng-MIRCrew\The Terror 1x02 - Gore.H264.ita.eng.sub.ita.eng-MIRCrew.mkv
Format                                   : Matroska
Format version                           : Version 2
File size                                : 508 MiB
Duration                                 : 42mn 34s
Overall bit rate                         : 1 669 Kbps
Encoded date                             : UTC 2018-03-31T10:11:05Z
Writing application                      : mkvmerge v5.4.0 ('Piper') built on Mar 10 2012 13:34:39
Writing library                          : Lavf55.12.0

Video
ID                                       : 1
Format                                   : AVC
Format/Info                              : Advanced Video Codec
Format profile                           : [email protected]
Format settings, CABAC                   : Yes
Format settings, ReFrames                : 4 frames
Codec ID                                 : V_MPEG4/ISO/AVC
Duration                                 : 42mn 34s
Bit rate                                 : 1 300 Kbps
Width                                    : 720 pixels
Height                                   : 404 pixels
Display aspect ratio                     : 16:9
Frame rate mode                          : Variable
Frame rate                               : 23.976 fps
Color space                              : YUV
Chroma subsampling                       : 4:2:0
Bit depth                                : 8 bits
Scan type                                : Progressive
Bits/(Pixel*Frame)                       : 0.186
Stream size                              : 381 MiB (75%)
Writing library                          : x264 core 142 r2479 dd79a61
Encoding settings                        : cabac=1 / ref=3 / deblock=1:0:0 / analyse=0x3:0x113 / me=hex / subme=7 / psy=1 / psy_rd=1.00:0.00 / mixed_ref=1 / me_range=16 / chroma_me=1 / trellis=1 / 8x8dct=1 / cqm=0 / deadzone=21,11 / fast_pskip=1 / chroma_qp_offset=-2 / threads=3 / lookahead_threads=1 / sliced_threads=0 / nr=0 / decimate=1 / interlaced=0 / bluray_compat=0 / constrained_intra=0 / bframes=3 / b_pyramid=2 / b_adapt=1 / b_bias=0 / direct=1 / weightb=1 / open_gop=0 / weightp=2 / keyint=240 / keyint_min=24 / scenecut=40 / intra_refresh=0 / rc_lookahead=40 / rc=abr / mbtree=1 / bitrate=1300 / ratetol=1.0 / qcomp=0.60 / qpmin=0 / qpmax=69 / qpstep=4 / vbv_maxrate=62500 / vbv_bufsize=78125 / nal_hrd=none / filler=0 / ip_ratio=1.40 / aq=1:1.00
Language                                 : Italian
Default                                  : Yes
Forced                                   : No
Color primaries                          : BT.709-5, BT.1361, IEC 61966-2-4, SMPTE RP177
Transfer characteristics                 : BT.709-5, BT.1361
Matrix coefficients                      : BT.709-5, BT.1361, IEC 61966-2-4 709, SMPTE RP177

Audio #1
ID                                       : 2
Format                                   : AC-3
Format/Info                              : Audio Coding 3
Mode extension                           : CM (complete main)
Codec ID                                 : A_AC3
Duration                                 : 42mn 34s
Bit rate mode                            : Constant
Bit rate                                 : 192 Kbps
Channel(s)                               : 2 channels
Channel positions                        : Front: L R
Sampling rate                            : 48.0 KHz
Bit depth                                : 16 bits
Compression mode                         : Lossy
Delay relative to video                  : -5ms
Stream size                              : 58.5 MiB (12%)
Title                                    : Ita
Language                                 : Italian
Default                                  : Yes
Forced                                   : No

Audio #2
ID                                       : 3
Format                                   : AC-3
Format/Info                              : Audio Coding 3
Mode extension                           : CM (complete main)
Codec ID                                 : A_AC3
Duration                                 : 42mn 34s
Bit rate mode                            : Constant
Bit rate                                 : 192 Kbps
Channel(s)                               : 6 channels
Channel positions                        : Front: L C R, Side: L R, LFE
Sampling rate                            : 48.0 KHz
Bit depth                                : 16 bits
Compression mode                         : Lossy
Delay relative to video                  : -83ms
Stream size                              : 58.5 MiB (12%)
Title                                    : eng
Language                                 : English
Default                                  : No
Forced                                   : No

Menu
00:00:00.000                             : reparing to ship off
00:03:53.191                             : :Opening Credits
00:04:24.222                             : :The parties set forth
00:05:52.185                             : :John attempts to make amends with Francis
00:08:42.230                             : :A wall of ice
00:13:51.247                             : :Break
00:13:53.290                             : :Irving hears noise down below
00:15:42.107                             : :"It must be a bear"
00:16:38.163                             : :The first party returns
00:19:07.229                             : :A proposal
00:20:41.198                             : :Late night thoughts
00:23:58.103                             : :More ice
00:28:43.096                             : :Break
00:28:45.181                             : :Francis discovers Hickey is Irish
00:32:14.140                             : :The second party returns
00:34:23.186                             : :Break
00:34:24.187                             : :Goodsir attempts to operate
00:39:11.182                             : :Francis tries to reach out to Lady Silence
00:42:03.187                             : :End Credits


[/spoiler]



Info: Per scaricare devi usare un client come uTorrent o Transmission
AnnounceURL
udp://tracker.coppersurfer.tk:6969/announce
Hash a4e8c3e83f60c0dcd31d942b37d331fa965c576a
Peers seeds: 14 , leech: 8
Size 508.41 MB
Completato 343x
Aggiunto 02.04.18 - 16:04:37
Uploader   robbyrs
Votazione (Voti: 0)


Condividi questo bittorrent:


html/blog:


bbcode/forum:




Aggiungi Commento


counter