Loading...
 * Dettagli Torrent   globale  | Commenti (0) 


- The Terror 1x01 - Tutto per tutto - Go for Broke.H264.Italian.english.sub.ita.eng.MIRCrew -


Download via torrent:
Categoria bittorrent SerieTv
Descrizione
The Terror 1x01 - Tutto per tutto - Go for Broke.H264.Italian.english.sub.ita.eng.MIRCrew



NO FOUND ONLY ORIGINAL RELEASE



My release is always in double track audio italian and Original audio
for select it use VLC or dvd player home
not use wmp

The Terror 1x01

Tutto per tutto - Go for Broke








Genre: Drama
Based on The Terror: by Dan Simmons
Developed by David Kajganich
Directed by Edward Berger



   Jared Harris
   Tobias Menzies
   Paul Ready
   Adam Nagaitis
   Ian Hart
   Nive Nielsen
   Ciarán Hinds


Episode:

1 "Go for Broke"
2 "Gore"
3 "The Ladder"
4 "Punished, as a Boy"
5 "First Shot a Winner, Lads"
6 "A Mercy" TBA TBA
7 "Horrible from Supper"
8 "Terror Camp Clear"
9 "The C, the C, the Open C"
10 "We Are Gone"



La serie vede come protagonisti principali Jared Harris della serie TV Mad Men e la star di Outlander Tobias Menzies, nei panni di membri della Royal Navy (la Marina Militare britannica) che soccombono alla paranoia dell'isolamento durante una pericolosa missione alla scoperta del Passaggio a Nord Ovest


The crews aboard the Royal Navy's polar explorer ships HMS Erebus and HMS Terror venture into uncharted territory seeking the Northwest Passage. The ships are soon stuck, frozen and isolated; and those aboard must survive the harsh weather conditions and each other.














General
Unique ID                                : 28210187211665708766478771863169429624 (0x1539159D1FBD3A8FE6241ACED162707
Complete name                            : The Terror 1x01 - Tutto per tutto - Go for Broke.H264.ita.eng.sub.ita.eng-MIRCrew\The Terror 1x01 - Tutto per tutto - Go for Broke.H264.ita.eng.sub.ita.eng-MIRCrew.mkv
Format                                   : Matroska
Format version                           : Version 2
File size                                : 562 MiB
Duration                                 : 46mn 59s
Overall bit rate                         : 1 673 Kbps
Movie name                               : MIRCrew
Encoded date                             : UTC 2018-03-28 14:22:33
Writing application                      : Lavf54.63.100
Writing library                          : Lavf54.63.100
COPYRIGHT                                : robbyrs-ilcorsaronero

Video
ID                                       : 1
Format                                   : AVC
Format/Info                              : Advanced Video Codec
Format profile                           : [email protected]
Format settings, CABAC                   : Yes
Format settings, ReFrames                : 2 frames
Codec ID                                 : V_MPEG4/ISO/AVC
Duration                                 : 46mn 59s
Bit rate                                 : 1 300 Kbps
Width                                    : 720 pixels
Height                                   : 404 pixels
Display aspect ratio                     : 16:9
Frame rate mode                          : Variable
Frame rate                               : 23.976 fps
Color space                              : YUV
Chroma subsampling                       : 4:2:0
Bit depth                                : 8 bits
Scan type                                : Progressive
Bits/(Pixel*Frame)                       : 0.186
Stream size                              : 422 MiB (75%)
Writing library                          : x264 core 130 r2273
Encoding settings                        : cabac=1 / ref=2 / deblock=1:0:0 / analyse=0x1:0x131 / me=hex / subme=7 / psy=1 / psy_rd=1.00:0.00 / mixed_ref=0 / me_range=16 / chroma_me=1 / trellis=1 / 8x8dct=0 / cqm=0 / deadzone=21,11 / fast_pskip=1 / chroma_qp_offset=-2 / threads=3 / lookahead_threads=1 / sliced_threads=0 / nr=0 / decimate=1 / interlaced=0 / bluray_compat=0 / constrained_intra=0 / bframes=3 / b_pyramid=0 / b_adapt=1 / b_bias=0 / direct=3 / weightb=1 / open_gop=0 / weightp=2 / keyint=230 / keyint_min=23 / scenecut=40 / intra_refresh=0 / rc_lookahead=40 / rc=abr / mbtree=1 / bitrate=1300 / ratetol=1.0 / qcomp=0.60 / qpmin=10 / qpmax=69 / qpstep=4 / vbv_maxrate=24000 / vbv_bufsize=24000 / nal_hrd=none / ip_ratio=1.40 / aq=1:1.00
Language                                 : Italian
Default                                  : Yes
Forced                                   : No
DURATION                                 : 00:46:58.983000000
NUMBER_OF_FRAMES                         : 67588
NUMBER_OF_BYTES                          : 2523008148
_STATISTICS_WRITING_APP                  : mkvmerge v7.6.0 ('Garden of Dreams') 64bit built on Feb  8 2015 15:12:28
_STATISTICS_WRITING_DATE_UTC             : 2018-03-26 21:49:29
_STATISTICS_TAGS                         : BPS DURATION NUMBER_OF_FRAMES NUMBER_OF_BYTES

Audio #1
ID                                       : 2
Format                                   : AC-3
Format/Info                              : Audio Coding 3
Mode extension                           : CM (complete main)
Codec ID                                 : A_AC3
Duration                                 : 46mn 59s
Bit rate mode                            : Constant
Bit rate                                 : 192 Kbps
Channel(s)                               : 2 channels
Channel positions                        : Front: L R
Sampling rate                            : 48.0 KHz
Bit depth                                : 16 bits
Compression mode                         : Lossy
Delay relative to video                  : 1mn 5s
Stream size                              : 64.5 MiB (11%)
Title                                    : ITA
Language                                 : Italian
Default                                  : Yes
Forced                                   : Yes
DURATION                                 : 00:46:59.008000000
NUMBER_OF_FRAMES                         : 88094
NUMBER_OF_BYTES                          : 67656192
_STATISTICS_WRITING_APP                  : mkvmerge v7.6.0 ('Garden of Dreams') 64bit built on Feb  8 2015 15:12:28
_STATISTICS_WRITING_DATE_UTC             : 2018-03-26 21:49:29
_STATISTICS_TAGS                         : BPS DURATION NUMBER_OF_FRAMES NUMBER_OF_BYTES

Audio #2
ID                                       : 3
Format                                   : AC-3
Format/Info                              : Audio Coding 3
Mode extension                           : CM (complete main)
Codec ID                                 : A_AC3
Duration                                 : 46mn 59s
Bit rate mode                            : Constant
Bit rate                                 : 192 Kbps
Channel(s)                               : 2 channels
Channel positions                        : Front: L R
Sampling rate                            : 48.0 KHz
Bit depth                                : 16 bits
Compression mode                         : Lossy
Delay relative to video                  : 1mn 5s
Stream size                              : 64.5 MiB (11%)
Title                                    : ENG
Language                                 : English
Default                                  : No
Forced                                   : No
DURATION                                 : 00:46:58.944000000
NUMBER_OF_FRAMES                         : 88092
NUMBER_OF_BYTES                          : 135309312
_STATISTICS_WRITING_APP                  : mkvmerge v7.6.0 ('Garden of Dreams') 64bit built on Feb  8 2015 15:12:28
_STATISTICS_WRITING_DATE_UTC             : 2018-03-26 21:49:29
_STATISTICS_TAGS                         : BPS DURATION NUMBER_OF_FRAMES NUMBER_OF_BYTES

Menu
00:00:00.000                             : :Scene 1
00:00:32.000                             : :Scene 2
00:02:45.000                             : :Scene 3
00:07:06.000                             : :Scene 4
00:10:45.000                             : :Scene 5
00:11:15.000                             : :Scene 6
00:15:37.000                             : :Scene 7
00:19:30.000                             : :Scene 8
00:22:08.000                             : :Scene 9
00:26:26.000                             : :Scene 10
00:33:02.000                             : :Scene 11
00:37:46.000                             : :Scene 12
00:41:58.000                             : :Scene 13
00:46:28.000                             : :Scene 14







Info: Per scaricare devi usare un client come uTorrent o Transmission
AnnounceURL
udp://tracker.coppersurfer.tk:6969/announce
Hash a135674e8f08493aea92ecdebf3d57f8bd7010fd
Peers seeds: 27 , leech: 5
Size 562.47 MB
Completato 765x
Aggiunto 28.03.18 - 17:03:21
Uploader   robbyrs
Votazione (Voti: 0)


Condividi questo bittorrent:


html/blog:


bbcode/forum:




Aggiungi Commento


counter