* Dettagli Torrent   globale  | Commenti (10) 


- La forma dell acqua (2017).720p.H264.italian.english.Ac3-5.1.sub.ita.eng.MIRCrew -


Download via torrent:
Categoria bittorrent BDRip
Descrizione
The Shape of Water - La forma dell'acqua (2017).720p.H264.italian.english.Ac3-5.1.sub.ita.eng.MIRCrew



NO FOUND ONLY ORIGINAL RELEASE





My release is always in double track audio italian and Original audio
for select it use VLC or dvd player home
not use wmp

La forma dell'acqua

The Shape of Water


(2017)

Qualità MIRCrew in HD 720p da 2,40 gb








Titolo originale The Shape of Water
Lingua originale inglese, russo, ASL
Paese di produzione Stati Uniti d'America
Anno 2017
Durata 123 min
Rapporto 1,85 : 1
Genere fantastico, sentimentale, avventura, drammatico
Regia Guillermo del Toro
Soggetto Guillermo del Toro
Sceneggiatura Guillermo del Toro, Vanessa Taylor
Produttore Guillermo del Toro, J. Miles Dale
Produttore esecutivo Liz Sayr



   Sally Hawkins: Elisa Esposito
   Michael Shannon: col. Richard Strickland
   Richard Jenkins: Giles
   Doug Jones: uomo anfibio
   Michael Stuhlbarg: dott. Robert 'Bob' Hoffstetler / Dimitri
   Octavia Spencer: Zelda Delilah Fuller
   Nick Searcy: gen. Frank Hoyt
   David Hewlett: Fleming
   Lauren Lee Smith: Elaine Strickland
   Morgan Kelly: uomo della torta
   Stewart Arnott: Bernard
   Nigel Bennett: Mihalkov
   Martin Roach: Brewster Fuller
   John Kapelos: Arzoumanian
   Jayden Greig: Timmy Strickland
   Brandon McKnight: Duane



Baltimora, 1962. Elisa Esposito è una donna affetta da mutismo, a causa della recisione delle corde vocali da bambina, che lavora come addetta alle pulizie in un laboratorio governativo dove vengono effettuati degli esperimenti atti a contrastare la Russia durante la Guerra Fredda. I suoi due unici amici sono la collega afroamericana Zelda e l'inquilino gay Giles, coi quali condivide una vita di solitudine ed emarginazione.................



At a top secret research facility in the 1960s, a lonely janitor forms a unique relationship with an amphibious creature that is being held in captivity. ...............









[spoiler]
General
Unique ID                                : 302013089455731503826951143794898717243 (0xE3359AF22FB05431DA4A254DD1494A3B)
Complete name                            : La forma dell'acqua - The Shape of Water (2017).720p.h264.ita.eng.sub.ita.eng-MIRCrew\La forma dell'acqua - The Shape of Water (2017).720p.h264.ita.eng.sub.ita.eng-MIRCrew.mkv
Format                                   : Matroska
Format version                           : Version 2
File size                                : 2.36 GiB
Duration                                 : 2h 3mn
Overall bit rate                         : 2 740 Kbps
Movie name                               : MIRCrew
Encoded date                             : UTC 2018-03-12 09:41:15
Writing application                      : Lavf54.63.100
Writing library                          : Lavf54.63.100
COPYRIGHT                                : robbyrs-iCN

Video
ID                                       : 1
Format                                   : AVC
Format/Info                              : Advanced Video Codec
Format profile                           : [email protected]
Format settings, CABAC                   : Yes
Format settings, ReFrames                : 2 frames
Codec ID                                 : V_MPEG4/ISO/AVC
Duration                                 : 2h 3mn
Bit rate                                 : 1 850 Kbps
Width                                    : 1 280 pixels
Height                                   : 688 pixels
Display aspect ratio                     : 1.853
Frame rate mode                          : Variable
Frame rate                               : 23.976 fps
Color space                              : YUV
Chroma subsampling                       : 4:2:0
Bit depth                                : 8 bits
Scan type                                : Progressive
Bits/(Pixel*Frame)                       : 0.088
Stream size                              : 1.54 GiB (65%)
Writing library                          : x264 core 130 r2273
Encoding settings                        : cabac=1 / ref=2 / deblock=1:0:0 / analyse=0x1:0x131 / me=hex / subme=7 / psy=1 / psy_rd=1.00:0.00 / mixed_ref=0 / me_range=16 / chroma_me=1 / trellis=1 / 8x8dct=0 / cqm=0 / deadzone=21,11 / fast_pskip=1 / chroma_qp_offset=-2 / threads=3 / lookahead_threads=1 / sliced_threads=0 / nr=0 / decimate=1 / interlaced=0 / bluray_compat=0 / constrained_intra=0 / bframes=3 / b_pyramid=0 / b_adapt=1 / b_bias=0 / direct=3 / weightb=1 / open_gop=0 / weightp=2 / keyint=230 / keyint_min=23 / scenecut=40 / intra_refresh=0 / rc_lookahead=40 / rc=abr / mbtree=1 / bitrate=1850 / ratetol=1.0 / qcomp=0.60 / qpmin=10 / qpmax=69 / qpstep=4 / vbv_maxrate=24000 / vbv_bufsize=24000 / nal_hrd=none / ip_ratio=1.40 / aq=1:1.00
Language                                 : Italian
Default                                  : Yes
Forced                                   : No
DURATION                                 : 02:03:19.392000000
NUMBER_OF_FRAMES                         : 177408
NUMBER_OF_BYTES                          : 9160231175
_STATISTICS_WRITING_APP                  : mkvmerge v15.0.0 ('Duel with the Devil') 64-bit
_STATISTICS_WRITING_DATE_UTC             : 2018-03-08 20:22:55
_STATISTICS_TAGS                         : BPS DURATION NUMBER_OF_FRAMES NUMBER_OF_BYTES

Audio #1
ID                                       : 2
Format                                   : AC-3
Format/Info                              : Audio Coding 3
Mode extension                           : CM (complete main)
Codec ID                                 : A_AC3
Duration                                 : 2h 3mn
Bit rate mode                            : Constant
Bit rate                                 : 448 Kbps
Channel(s)                               : 6 channels
Channel positions                        : Front: L C R, Side: L R, LFE
Sampling rate                            : 48.0 KHz
Bit depth                                : 16 bits
Compression mode                         : Lossy
Delay relative to video                  : 1mn 5s
Stream size                              : 395 MiB (16%)
Language                                 : Italian
Default                                  : No
Forced                                   : No
DURATION                                 : 02:03:19.456000000
NUMBER_OF_FRAMES                         : 231233
NUMBER_OF_BYTES                          : 591956480
_STATISTICS_WRITING_APP                  : mkvmerge v15.0.0 ('Duel with the Devil') 64-bit
_STATISTICS_WRITING_DATE_UTC             : 2018-03-08 20:22:55
_STATISTICS_TAGS                         : BPS DURATION NUMBER_OF_FRAMES NUMBER_OF_BYTES

Audio #2
ID                                       : 3
Format                                   : AC-3
Format/Info                              : Audio Coding 3
Mode extension                           : CM (complete main)
Codec ID                                 : A_AC3
Duration                                 : 2h 3mn
Bit rate mode                            : Constant
Bit rate                                 : 448 Kbps
Channel(s)                               : 6 channels
Channel positions                        : Front: L C R, Side: L R, LFE
Sampling rate                            : 48.0 KHz
Bit depth                                : 16 bits
Compression mode                         : Lossy
Delay relative to video                  : 1mn 5s
Stream size                              : 395 MiB (16%)
Language                                 : English
Default                                  : No
Forced                                   : No
DURATION                                 : 02:03:19.435000000
NUMBER_OF_FRAMES                         : 693697
NUMBER_OF_BYTES                          : 1395718432
_STATISTICS_WRITING_APP                  : mkvmerge v15.0.0 ('Duel with the Devil') 64-bit
_STATISTICS_WRITING_DATE_UTC             : 2018-03-08 20:22:55
_STATISTICS_TAGS                         : BPS DURATION NUMBER_OF_FRAMES NUMBER_OF_BYTES

Menu
00:00:00.000                             : :Chapter 01
00:06:24.467                             : :Chapter 02
00:12:54.774                             : :Chapter 03
00:18:32.987                             : :Chapter 04
00:23:45.591                             : :Chapter 05
00:29:39.653                             : :Chapter 06
00:35:29.836                             : :Chapter 07
00:39:30.535                             : :Chapter 08
00:42:42.435                             : :Chapter 09
00:48:34.036                             : :Chapter 10
00:52:26.935                             : :Chapter 11
00:57:30.197                             : :Chapter 12
01:01:52.542                             : :Chapter 13
01:07:35.551                             : :Chapter 14
01:12:13.496                             : :Chapter 15
01:17:50.791                             : :Chapter 16
01:21:17.122                             : :Chapter 17
01:26:05.911                             : :Chapter 18
01:32:48.480                             : :Chapter 19
01:37:18.750                             : :Chapter 20
01:43:24.115                             : :Chapter 21
01:46:06.610                             : :Chapter 22
01:50:31.667                             : :Chapter 23
01:58:34.858                             : :Chapter 24



Info: Per scaricare devi usare un client come uTorrent o Transmission
AnnounceURL
udp://tracker.coppersurfer.tk:6969/announce
Hash 99938b954106545cde978c4de1f495bfdf468f74
Peers seeds: 541 , leech: 118
Size 2.36 GB
Completato 10661x
Aggiunto 12.03.18 - 18:03:01
Uploader   robbyrs
Votazione (Voti: 3)


Condividi questo bittorrent:


html/blog:


bbcode/forum:




Aggiungi Commento
Ultimi commenti
 BerjoskaBerjoska   
nessun problema a scaricare: appena cliccato sul magnet e sto già al 15%
15/03 20.37
 BerjoskaBerjoska   
e prendiamo anche questo, dai. Grazie robby!
15/03 20.36
avatar   robbyrs   
si saranno i 5540  che lo hanno completato che alitando lo hanno spostato di 2 metri



15/03 00.02
Tutti commenti (10)


counter