* Dettagli Torrent   globale  | Commenti (0) 


- Death Race 3 - Inferno (2012).italian.english.Ac3-5.1.sub.NUita.eng.ger-MIRCrew -


Download via torrent:
Categoria bittorrent BDRip
Descrizione
Death Race 3 - Inferno (2012).italian.english.Ac3-5.1.sub.NUita.eng.ger-MIRCrew


NO FOUND ONLY ORIGINAL RELEASE



My release is always in double track audio italian and Original audio
for select it use VLC or dvd player home
not use wmp

SOTTOTITOLI ITALIANI PER NON UDENTI INCLUSI

Death Race 3 - Inferno

(2012)







Titolo originale Death Race: Inferno
Lingua originale inglese
Paese di produzione Stati Uniti d'America
Anno 2012
Durata 105 min
Rapporto 1,78 : 1
Genere azione, sportivo, fantascienza
Regia Roel Reiné
Sceneggiatura Tony Giglio
Produttore Paul W.S. Anderson, Jeremy Bolt, Mike Elliott
Casa di produzione Moonlighting Films
Distribuzione (Italia) Universal Studios
Fotografia Roel Reiné, Wayne Shields
Montaggio Michael Trent
Musiche Trevor Morris



   Luke Goss: Carl Lucas
   Ving Rhames: Weyland
   Danny Trejo: Goldberg
   Dougray Scott: Niles York
   Fred Koehler: Lists
   Tanit Phoenix: Katrina Banks
   Robin Shou: 14K
   Hlubi Mboya: Diabolos
   Roxane Hayward: Prudence
   Sean Cameron Michael: Dottore



Prossimo futuro. Rinchiuso in carcere, Carl Lucas - con il nome di battaglia di Frankenstein - è diventato un leggendario pilota di Death Race, le sanguinose e brutali corse d'auto che si disputano tra detenuti. Ha già vinto quattro gare e gliene manca solo una per ritornare in libertà, quando viene trasferito in un carcere nel deserto del Kalahari, nel sud dell'Africa............



Convicted cop-killer Carl Lucas, aka Frankenstein, is a superstar driver in the brutal prison yard demolition derby known as Death Race. Only one victory away from winning freedom for himself and his pit crew. .........








[spoiler]
General
Complete name                            : Death Race 3 - Inferno (2012).ita.eng.sub.ita.eng.ger.MIRCrew\Death Race 3 - Inferno (2012).ita.eng.sub.ita.eng.ger.MIRCrew.avi
Format                                   : AVI
Format/Info                              : Audio Video Interleave
File size                                : 1.37 GiB
Duration                                 : 1h 40mn
Overall bit rate                         : 1 942 Kbps
Writing application                      : VirtualDubMod 1.5.4.1 (build 2178/release)
Writing library                          : VirtualDubMod build 2178/release

Video
ID                                       : 0
Format                                   : MPEG-4 Visual
Format profile                           : Advanced [email protected]
Format settings, BVOP                    : 1
Format settings, QPel                    : No
Format settings, GMC                     : No warppoints
Format settings, Matrix                  : Custom
Codec ID                                 : XVID
Codec ID/Hint                            : XviD
Duration                                 : 1h 40mn
Bit rate                                 : 1 165 Kbps
Width                                    : 608 pixels
Height                                   : 336 pixels
Display aspect ratio                     : 16:9
Frame rate                               : 25.000 fps
Color space                              : YUV
Chroma subsampling                       : 4:2:0
Bit depth                                : 8 bits
Scan type                                : Progressive
Compression mode                         : Lossy
Bits/(Pixel*Frame)                       : 0.228
Stream size                              : 841 MiB (60%)
Writing library                          : XviD 1.2.0.dev47 (UTC 2006-11-01)

Audio #1
ID                                       : 1
Format                                   : AC-3
Format/Info                              : Audio Coding 3
Mode extension                           : CM (complete main)
Codec ID                                 : 2000
Duration                                 : 1h 40mn
Bit rate mode                            : Constant
Bit rate                                 : 384 Kbps
Channel(s)                               : 6 channels
Channel positions                        : Front: L C R, Side: L R, LFE
Sampling rate                            : 48.0 KHz
Bit depth                                : 16 bits
Compression mode                         : Lossy
Stream size                              : 277 MiB (20%)
Alignment                                : Split accross interleaves
Interleave, duration                     : 96 ms (2.40 video frames)
Interleave, preload duration             : 96 ms
Language                                 : Italian

Audio #2
ID                                       : 2
Format                                   : AC-3
Format/Info                              : Audio Coding 3
Mode extension                           : CM (complete main)
Codec ID                                 : 2000
Duration                                 : 1h 40mn
Bit rate mode                            : Constant
Bit rate                                 : 384 Kbps
Channel(s)                               : 6 channels
Channel positions                        : Front: L C R, Side: L R, LFE
Sampling rate                            : 48.0 KHz
Bit depth                                : 16 bits
Compression mode                         : Lossy
Stream size                              : 277 MiB (20%)
Alignment                                : Split accross interleaves
Interleave, duration                     : 96 ms (2.40 video frames)
Interleave, preload duration             : 96 ms
Language                                 : English




Info: Per scaricare devi usare un client come uTorrent o Transmission
AnnounceURL
udp://tracker.coppersurfer.tk:6969/announce
Hash b4f792d9ac202db359fc5defa83c880dd2dc4dbc
Peers seeds: 36 , leech: 16
Size 1.38 GB
Completato 424x
Aggiunto 12.03.18 - 11:03:53
Uploader   robbyrs
Votazione (Voti: 1)


Condividi questo bittorrent:


html/blog:


bbcode/forum:




Aggiungi Commento


counter