* Dettagli Torrent   globale  | Commenti (0) 


- The Place (2017).H264.italian.Ac3-sub.ita.eng.MIRCrew -


Download via torrent:
Categoria bittorrent BDRip
Descrizione
The Place (2017).H264.italian.Ac3-sub.ita.eng.MIRCrew



NO FOUND ONLY ORIGINAL RELEASE




My release is always in double track audio italian and Original audio
for select it use VLC or dvd player home
not use wmp

The Place

(2017)

ENGLISH SUBTITLE INSIDE








Anno: 2017
Nazione: Italia
Durata: 105 min
Data uscita in Italia: giovedì 9 novembre 2017
Genere: Drammatico



Valerio Mastandrea, Marco Giallini, Alessandro Borghi, Silvio Muccino, Alba Rohrwacher................



Lui è seduto sempre allo stesso posto. Non importa a quale ora del giorno e della notte, lo troverete sempre lì, all'angolo di un ristorante, allo stesso tavolo, con un quaderno in mano. Qualche volta ci scrive delle cose, qualche altra le legge. Non sappiamo niente di lui, chi lo viene a cercare sa soltanto che è capace di esaudire desideri. Tutti i desideri: ricchezza, bellezza eterna, fede, sesso, salute, speranza. Alcune richieste sono semplici, altre più singolari ma tutte hanno un prezzo e il prezzo da pagare non è mai senza conseguenze.




The fates of an apparently random group of strangers who each come into contact with a mysterious figure who they believe possesses the power to grant any wish, in return for which they must carry out a task he assigns them. .........








General
Unique ID                                : 219971691389005975655102555272889616360 (0xA57D01B9795B86AA960D11D7CBA9C7E
Complete name                            : The Place (2017).h264.ita.sub.ita.eng-MIRCrew\The Place (2017).h264.ita.sub.ita.eng-MIRCrew.mkv
Format                                   : Matroska
Format version                           : Version 2
File size                                : 1.19 GiB
Duration                                 : 1h 41mn
Overall bit rate                         : 1 685 Kbps
Movie name                               : MIRCrew
Encoded date                             : UTC 2018-03-10 14:04:17
Writing application                      : mkvmerge v5.4.0 ('Piper') built on Mar 10 2012 13:34:39
Writing library                          : Lavf54.63.100
COPYRIGHT                                : robbyrs-iCN

Video
ID                                       : 1
Format                                   : AVC
Format/Info                              : Advanced Video Codec
Format profile                           : [email protected]
Format settings, CABAC                   : Yes
Format settings, ReFrames                : 2 frames
Codec ID                                 : V_MPEG4/ISO/AVC
Duration                                 : 1h 41mn
Bit rate                                 : 1 300 Kbps
Width                                    : 720 pixels
Height                                   : 300 pixels
Display aspect ratio                     : 2.40:1
Frame rate mode                          : Variable
Frame rate                               : 25.000 fps
Color space                              : YUV
Chroma subsampling                       : 4:2:0
Bit depth                                : 8 bits
Scan type                                : Progressive
Bits/(Pixel*Frame)                       : 0.241
Stream size                              : 917 MiB (75%)
Writing library                          : x264 core 130 r2273
Encoding settings                        : cabac=1 / ref=2 / deblock=1:0:0 / analyse=0x1:0x131 / me=hex / subme=7 / psy=1 / psy_rd=1.00:0.00 / mixed_ref=0 / me_range=16 / chroma_me=1 / trellis=1 / 8x8dct=0 / cqm=0 / deadzone=21,11 / fast_pskip=1 / chroma_qp_offset=-2 / threads=3 / lookahead_threads=1 / sliced_threads=0 / nr=0 / decimate=1 / interlaced=0 / bluray_compat=0 / constrained_intra=0 / bframes=3 / b_pyramid=0 / b_adapt=1 / b_bias=0 / direct=3 / weightb=1 / open_gop=0 / weightp=2 / keyint=250 / keyint_min=25 / scenecut=40 / intra_refresh=0 / rc_lookahead=40 / rc=abr / mbtree=1 / bitrate=1300 / ratetol=1.0 / qcomp=0.60 / qpmin=10 / qpmax=69 / qpstep=4 / vbv_maxrate=24000 / vbv_bufsize=24000 / nal_hrd=none / ip_ratio=1.40 / aq=1:1.00
Language                                 : English
Default                                  : Yes
Forced                                   : No
DURATION                                 : 01:41:12.040000000
NUMBER_OF_FRAMES                         : 151801
NUMBER_OF_BYTES                          : 7865905460
_STATISTICS_WRITING_APP                  : mkvmerge v9.5.0 ('Quiet Fire') 64bit
_STATISTICS_WRITING_DATE_UTC             : 2018-02-23 12:02:27
_STATISTICS_TAGS                         : BPS DURATION NUMBER_OF_FRAMES NUMBER_OF_BYTES

Audio
ID                                       : 2
Format                                   : AC-3
Format/Info                              : Audio Coding 3
Mode extension                           : CM (complete main)
Codec ID                                 : A_AC3
Duration                                 : 1h 41mn
Bit rate mode                            : Constant
Bit rate                                 : 384 Kbps
Channel(s)                               : 2 channels
Channel positions                        : Front: L R
Sampling rate                            : 48.0 KHz
Bit depth                                : 16 bits
Compression mode                         : Lossy
Delay relative to video                  : 995ms
Stream size                              : 278 MiB (23%)
Title                                    : Ita Ac3 5.1
Language                                 : Italian
Default                                  : No
Forced                                   : No
DURATION                                 : 01:41:11.008000000
NUMBER_OF_FRAMES                         : 189719
NUMBER_OF_BYTES                          : 485680640
_STATISTICS_WRITING_APP                  : mkvmerge v9.5.0 ('Quiet Fire') 64bit
_STATISTICS_WRITING_DATE_UTC             : 2018-02-23 12:02:27
_STATISTICS_TAGS                         : BPS DURATION NUMBER_OF_FRAMES NUMBER_OF_BYTES

Menu
00:00:00.000                             : :00:00:00.000
00:07:05.342                             : :00:07:05.342
00:14:28.201                             : :00:14:28.201
00:20:13.838                             : :00:20:13.838
00:29:27.099                             : :00:29:27.099
00:39:02.590                             : :00:39:02.590
00:50:56.804                             : :00:50:56.804
00:59:52.756                             : :00:59:52.756
01:08:53.129                             : :01:08:53.129
01:16:19.950                             : :01:16:19.950
01:25:27.706                             : :01:25:27.706
01:35:23.259                             : :01:35:23.259



Info: Per scaricare devi usare un client come uTorrent o Transmission
AnnounceURL
udp://tracker.coppersurfer.tk:6969/announce
Hash 8293a703c658787268cf4997b5ddf1bc739970aa
Peers seeds: 256 , leech: 30
Size 1.19 GB
Completato 3278x
Aggiunto 11.03.18 - 16:03:14
Uploader   robbyrs
Votazione (Voti: 1)


Condividi questo bittorrent:


html/blog:


bbcode/forum:




Aggiungi Commento


counter