* Dettagli Torrent   globale  | Commenti (0) 


- Botte da Prof - Fist Fight (2017).720p.H264.italian.english.Ac3.sub.ita.eng.MIRCrew -


Download via torrent:
Categoria bittorrent BDRip
Descrizione
Fist Fight - Botte da Prof  (2017).720p.H264.italian.english.Ac3.sub.ita.eng.MIRCrew


NO FOUND ONLY ORIGINAL RELEASE



My release is always in double track audio italian and Original audio
for select it use VLC or dvd player home
not use wmp

Botte da Prof

Fist Fight


(2017)

Qualità MIRCrew in HD 720p da 1,7 gb








GENERE: Commedia
ANNO: 2017
REGIA: Richie Keen
PAESE: USA

   REGIA: Richie Keen
   SCENEGGIATURA: Van Robichaux, Evan Susser
   FOTOGRAFIA: Eric Alan Edwards

   MONTAGGIO: Matthew Freund
   MUSICHE: Dominic Lewis
   PRODUZIONE: New Line Cinema, Van Brand, 21 Laps Entertainment



Ice Cube, Charlie Day, Christina Hendricks, Dennis Haysbert, Dean Norris



L'ultimo giorno di scuola, il mite professore di inglese Andy Campbell (Day) cerca di fare del suo meglio per tenere insieme la situazione – tra le pesanti burle dei diplomandi, un’amministrazione scombinata e grossi tagli al budget che mettono a repentaglio il posto di tanti.



When one school teacher unwittingly causes another teacher's dismissal, he is challenged to an after-school fight.









[spoiler]
General
Unique ID                                : 180618506043949952272242391441483837771 (0x87E1DBE2D70740BB0CD091F8607D314B)
Complete name                            : Botte da Prof - Fist Fight (2017).720p.H264.ita.sub.eng-MIRCrew\Botte da Prof - Fist Fight (2017).720p.H264.ita.sub.eng-MIRCrew.mkv
Format                                   : Matroska
Format version                           : Version 2
File size                                : 1.68 GiB
Duration                                 : 1h 31mn
Overall bit rate                         : 2 638 Kbps
Encoded date                             : UTC 2018-03-08T16:17:05Z
Writing application                      : HandBrake 0.10.5 2016021100
Writing library                          : Lavf55.12.0

Video
ID                                       : 1
Format                                   : AVC
Format/Info                              : Advanced Video Codec
Format profile                           : [email protected]
Format settings, CABAC                   : Yes
Format settings, ReFrames                : 4 frames
Codec ID                                 : V_MPEG4/ISO/AVC
Duration                                 : 1h 31mn
Bit rate                                 : 1 750 Kbps
Width                                    : 1 280 pixels
Height                                   : 720 pixels
Display aspect ratio                     : 16:9
Frame rate mode                          : Variable
Frame rate                               : 23.976 fps
Color space                              : YUV
Chroma subsampling                       : 4:2:0
Bit depth                                : 8 bits
Scan type                                : Progressive
Bits/(Pixel*Frame)                       : 0.079
Stream size                              : 1.07 GiB (64%)
Writing library                          : x264 core 142 r2479 dd79a61
Encoding settings                        : cabac=1 / ref=3 / deblock=1:0:0 / analyse=0x3:0x113 / me=hex / subme=7 / psy=1 / psy_rd=1.00:0.00 / mixed_ref=1 / me_range=16 / chroma_me=1 / trellis=1 / 8x8dct=1 / cqm=0 / deadzone=21,11 / fast_pskip=1 / chroma_qp_offset=-2 / threads=3 / lookahead_threads=1 / sliced_threads=0 / nr=0 / decimate=1 / interlaced=0 / bluray_compat=0 / constrained_intra=0 / bframes=3 / b_pyramid=2 / b_adapt=1 / b_bias=0 / direct=1 / weightb=1 / open_gop=0 / weightp=2 / keyint=240 / keyint_min=24 / scenecut=40 / intra_refresh=0 / rc_lookahead=40 / rc=abr / mbtree=1 / bitrate=1750 / ratetol=1.0 / qcomp=0.60 / qpmin=0 / qpmax=69 / qpstep=4 / vbv_maxrate=62500 / vbv_bufsize=78125 / nal_hrd=none / filler=0 / ip_ratio=1.40 / aq=1:1.00
Default                                  : Yes
Forced                                   : No
Color primaries                          : BT.709-5, BT.1361, IEC 61966-2-4, SMPTE RP177
Transfer characteristics                 : BT.709-5, BT.1361
Matrix coefficients                      : BT.709-5, BT.1361, IEC 61966-2-4 709, SMPTE RP177

Audio #1
ID                                       : 2
Format                                   : AC-3
Format/Info                              : Audio Coding 3
Mode extension                           : CM (complete main)
Codec ID                                 : A_AC3
Duration                                 : 1h 31mn
Bit rate mode                            : Constant
Bit rate                                 : 448 Kbps
Channel(s)                               : 2 channels
Channel positions                        : Front: L R
Sampling rate                            : 48.0 KHz
Bit depth                                : 16 bits
Compression mode                         : Lossy
Delay relative to video                  : 1mn 5s
Stream size                              : 292 MiB (17%)
Title                                    : Stereo
Language                                 : Italian
Default                                  : Yes
Forced                                   : No

Audio #2
ID                                       : 3
Format                                   : AC-3
Format/Info                              : Audio Coding 3
Mode extension                           : CM (complete main)
Codec ID                                 : A_AC3
Duration                                 : 1h 31mn
Bit rate mode                            : Constant
Bit rate                                 : 448 Kbps
Channel(s)                               : 6 channels
Channel positions                        : Front: L C R, Side: L R, LFE
Sampling rate                            : 48.0 KHz
Bit depth                                : 16 bits
Compression mode                         : Lossy
Delay relative to video                  : 1mn 5s
Stream size                              : 292 MiB (17%)
Title                                    : Surround
Language                                 : English
Default                                  : No
Forced                                   : No

Menu
00:00:00.000                             : :00:00:00.000
00:09:54.093                             : :00:09:54.010
00:20:36.610                             : :00:20:36.527
00:29:52.374                             : :00:29:52.290
00:44:00.554                             : :00:44:00.471
00:50:11.300                             : :00:50:11.217
01:02:44.927                             : :01:02:44.844
01:10:16.837                             : :01:10:16.754
01:19:36.104                             : :01:19:36.021
01:24:07.334                             : :01:24:07.125




Info: Per scaricare devi usare un client come uTorrent o Transmission
AnnounceURL
udp://tracker.coppersurfer.tk:6969/announce
Hash ccc7e6e0b525689ef6ae82e1a88e327352689544
Peers seeds: 99 , leech: 24
Size 1.68 GB
Completato 1824x
Aggiunto 11.03.18 - 11:03:59
Uploader   robbyrs
Votazione (Voti: 0)


Condividi questo bittorrent:


html/blog:


bbcode/forum:




Aggiungi Commento


counter