* Dettagli Torrent   globale  | Commenti (0) 


- Se ci conoscessimo oggi (2018).H264.italian.english.Ac3-5.1.sub.ita.eng.fre.spa.ger.MIRCrew -


Download via torrent:
Categoria bittorrent BDRip
Descrizione
When We First Met - Se ci conoscessimo oggi  2018.H264.italian.english.Ac3-5.1.sub.ita.eng.fre.spa.ger.MIRCrew


NO FOUND ONLY ORIGINAL RELEASE




My release is always in double track audio italian and Original audio
for select it use VLC or dvd player home
not use wmp

Se ci conoscessimo oggi

When We First Met


2018









Regia: Ari Sandel
Durata 1,37 h
Sceneggiatura: John Whittington
Musiche: Eric V. Hachikian
Fotografia: David Hennings
Scenografia: Gae S. Buckley
Genere: Commedia
Nazione: USA - 2018
Formato: Colore
Durata: N.d.
Produzione: Footprint Features, Wonderland Sound and Vision, MXN Entertainment, Long Road Film (in associazione con)
Distribuzione: Netflix



Alexandra Daddario, Robbie Amell, Adam DeVine, Shelley Hennig, Noureen DeWulf, Andrew Bachelor, Tony Cavalero, Tenea Intriago, Chris Wylde, Dean J. West



Noah trascorre una serata perfetta con Avery, la ragazza dei suoi sogni, che però lo considera solamente un buon amico. Trascorre allora i successivi tre anni a chiedersi cosa sia andato storto. Un giorno, però, ha la possibilità inattesa di viaggiare indietro nel tempo e di cambiare quella sera e il suo destino più e più volte.



Noah spends the perfect first night with Avery, the girl of his dreams, but gets relegated to the friend zone. He spends the next three years wondering what went wrong - until he gets the ... ..........









[spoiler]
General
Unique ID                                : 253074185204351437216611033823515446059 (0xBE6450AD4105CB8C8E2C3AB58EE30B2B)
Complete name                            : Se ci conoscessimo oggi - When We First Met (201.ita.eng.multisub-MIRCrew\Se ci conoscessimo oggi - When We First Met (201.ita.eng.multisub-MIRCrew.mkv
Format                                   : Matroska
Format version                           : Version 2
File size                                : 1.68 GiB
Duration                                 : 1h 37mn
Overall bit rate                         : 2 476 Kbps
Movie name                               : MIRCrew
Encoded date                             : UTC 2018-03-09 15:46:47
Writing application                      : Lavf54.63.100
Writing library                          : Lavf54.63.100
COPYRIGHT                                : robbyrs-iCN

Video
ID                                       : 1
Format                                   : AVC
Format/Info                              : Advanced Video Codec
Format profile                           : [email protected]
Format settings, CABAC                   : Yes
Format settings, ReFrames                : 2 frames
Codec ID                                 : V_MPEG4/ISO/AVC
Duration                                 : 1h 37mn
Bit rate                                 : 1 659 Kbps
Nominal bit rate                         : 1 750 Kbps
Width                                    : 720 pixels
Height                                   : 404 pixels
Display aspect ratio                     : 16:9
Frame rate mode                          : Variable
Frame rate                               : 23.976 fps
Color space                              : YUV
Chroma subsampling                       : 4:2:0
Bit depth                                : 8 bits
Scan type                                : Progressive
Bits/(Pixel*Frame)                       : 0.238
Stream size                              : 1.12 GiB (67%)
Writing library                          : x264 core 130 r2273
Encoding settings                        : cabac=1 / ref=2 / deblock=1:0:0 / analyse=0x1:0x131 / me=hex / subme=7 / psy=1 / psy_rd=1.00:0.00 / mixed_ref=0 / me_range=16 / chroma_me=1 / trellis=1 / 8x8dct=0 / cqm=0 / deadzone=21,11 / fast_pskip=1 / chroma_qp_offset=-2 / threads=3 / lookahead_threads=1 / sliced_threads=0 / nr=0 / decimate=1 / interlaced=0 / bluray_compat=0 / constrained_intra=0 / bframes=3 / b_pyramid=0 / b_adapt=1 / b_bias=0 / direct=3 / weightb=1 / open_gop=0 / weightp=2 / keyint=230 / keyint_min=23 / scenecut=40 / intra_refresh=0 / rc_lookahead=40 / rc=abr / mbtree=1 / bitrate=1750 / ratetol=1.0 / qcomp=0.60 / qpmin=10 / qpmax=69 / qpstep=4 / vbv_maxrate=24000 / vbv_bufsize=24000 / nal_hrd=none / ip_ratio=1.40 / aq=1:1.00
Default                                  : Yes
Forced                                   : No
_STATISTICS_WRITING_APP                  : mkvmerge v7.6.0 ('Garden of Dreams') 64bit built on Feb  8 2015 15:12:28
_STATISTICS_WRITING_DATE_UTC             : 2018-02-23 21:28:40
_STATISTICS_TAGS                         : BPS DURATION NUMBER_OF_FRAMES NUMBER_OF_BYTES
DURATION                                 : 01:37:02.192000000
NUMBER_OF_FRAMES                         : 139593
NUMBER_OF_BYTES                          : 3760896312

Audio #1
ID                                       : 2
Format                                   : AC-3
Format/Info                              : Audio Coding 3
Mode extension                           : CM (complete main)
Codec ID                                 : A_AC3
Duration                                 : 1h 37mn
Bit rate mode                            : Constant
Bit rate                                 : 384 Kbps
Channel(s)                               : 6 channels
Channel positions                        : Front: L C R, Side: L R, LFE
Sampling rate                            : 48.0 KHz
Bit depth                                : 16 bits
Compression mode                         : Lossy
Delay relative to video                  : 1mn 5s
Stream size                              : 267 MiB (16%)
Title                                    : ITA
Language                                 : Italian
Default                                  : Yes
Forced                                   : Yes
DURATION                                 : 01:37:02.240000000
NUMBER_OF_FRAMES                         : 181945
NUMBER_OF_BYTES                          : 279467520
_STATISTICS_WRITING_APP                  : mkvmerge v7.6.0 ('Garden of Dreams') 64bit built on Feb  8 2015 15:12:28
_STATISTICS_WRITING_DATE_UTC             : 2018-02-23 21:28:40
_STATISTICS_TAGS                         : BPS DURATION NUMBER_OF_FRAMES NUMBER_OF_BYTES

Audio #2
ID                                       : 3
Format                                   : AC-3
Format/Info                              : Audio Coding 3
Mode extension                           : CM (complete main)
Codec ID                                 : A_AC3
Duration                                 : 1h 37mn
Bit rate mode                            : Constant
Bit rate                                 : 384 Kbps
Channel(s)                               : 6 channels
Channel positions                        : Front: L C R, Side: L R, LFE
Sampling rate                            : 48.0 KHz
Bit depth                                : 16 bits
Compression mode                         : Lossy
Delay relative to video                  : 1mn 5s
Stream size                              : 267 MiB (16%)
Title                                    : ENG
Language                                 : English
Default                                  : No
Forced                                   : No
_STATISTICS_WRITING_APP                  : mkvmerge v7.6.0 ('Garden of Dreams') 64bit built on Feb  8 2015 15:12:28
_STATISTICS_WRITING_DATE_UTC             : 2018-02-23 21:28:40
_STATISTICS_TAGS                         : BPS DURATION NUMBER_OF_FRAMES NUMBER_OF_BYTES
DURATION                                 : 01:37:02.240000000
NUMBER_OF_FRAMES                         : 181945
NUMBER_OF_BYTES                          : 279467520





Info: Per scaricare devi usare un client come uTorrent o Transmission
AnnounceURL
udp://tracker.coppersurfer.tk:6969/announce
Hash fb21e1eb27a2cb01a76848db9bfd8c899b3037d2
Peers seeds: 128 , leech: 32
Size 1.68 GB
Completato 2597x
Aggiunto 10.03.18 - 12:03:49
Uploader   robbyrs
Votazione (Voti: 1)


Condividi questo bittorrent:


html/blog:


bbcode/forum:




Aggiungi Commento


counter