Loading...
 * Dettagli Torrent   globale  | Commenti (2) 


- Thor.Ragnarok.2017.ITA.ENG.1080p.iMAX.BDRip.x264-Speranzah.mkv -


Download via torrent:
Categoria bittorrent BDRip
Descrizione
[center]

GIUSEPPEiCV & LITTLELINX
HANNO IL PIACERE DI PRESENTARE




BDMUX 1080p
iMAX VERSION
ITA -  AC3 5.1  ENG DTS 5.1



.: Dati  :.

DATA USCITA: 25 ottobre 2017
GENERE: Azione, Fantasy, Avventura, Commedia
ANNO: 2017
REGIA: Taika Waititi
ATTORI: Chris Hemsworth, Tom Hiddleston, Jaimie Alexander, Mark Ruffalo, Idris Elba, Cate Blanchett, Benedict Cumberbatch,
Karl Urban, Anthony Hopkins, Tessa Thompson, Ray Stevenson, Sam Neill, Jeff Goldblum, Taika Waititi, Stan Lee, Rachel House,
Zachary Levi, Luke Hemsworth, Jasper Bagg
PAESE: USA
DURATA: 130 Min
DISTRIBUZIONE: Walt Disney Studios Motion Pictures Italia


.: Trama  :.

Thor is imprisoned on the other side of the universe and finds himself in a race against time to get back to Asgard to stop Ragnarok, the destruction of his homeworld and the end of ...

Thor Ragnarok trae ispirazione dalla mitologia norrena. Il sottotitolo stesso della terza avventura del supereroe Marvel rimanda alla leggendaria battaglia tra le forze delle tenebre e quelle della luce.
Per intervenire a difesa del pianeta Terra e dei suoi abitanti, il vanaglorioso principe di Asgard Thor (Chris Hemsworth) ha messo da parte i nobili natali, la discendenza aliena e i conflitti familiari con Loki (Tom Hiddleston), atterrando puntualmente con un tonfo al fianco dei colleghi Avengers tutte le volte che ce n'è stato bisogno. Dopo averlo visto sfidare i componenti più forti della squadra a sollevare il leggendario Mjöllnir, e gongolare nella consapevolezza di essere il solo degno di brandirlo, un potente nemico in gonnella si fa avanti per raccogliere la sfida e disintegra il martello sotto gli increduli occhi del proprietario. La perfida Hela (Cate Blanchett), tornata in libertà dopo millenni di prigionia, minaccia di scatenare la sua ira sul regno di Odino (Anthony Hopkins), e l'unico guerriero in grado di fermarla e scongiurare il Ragnarok è disarmato e imprigionato dall'altra parte dell'universo. Indebolito dallo scontro con Hela, Thor è finito nelle mani del Gran Maestro (Jeff Goldblum), un avido burattinaio il cui passatempo preferito è far duellare forme di vita inferiori dentro un'arena intergalattica. Ma l'avversario che la sorte riserva al dio del tuono è una vecchia conoscenza, lo scienziato Bruce Banner (Mark Ruffalo), nella versione più grossa e arrabbiata. Dopo qualche scaramuccia ai fini dello spettacolo, il "collega di lavoro" Hulk si rivelerà un alleato prezioso per salvare dalla distruzione l'intera civiltà asgardiana.


[center].: Screenshot :.





.: Caratteristiche Tecniche :.

[spoiler]hor.Ragnarok.2017.ITA.ENG.1080p.iMAX.BDRip.x264-Speranzah.mkv
Format                                   : Matroska
Format version                           : Version 4 / Version 2
File size                                : 12.0 GiB
Duration                                 : 2h 10mn
Overall bit rate                         : 13.2 Mbps
Encoded date                             : UTC 2018-02-26 15:19:24
Writing application                      : mkvmerge v7.6.0 ('Garden of Dreams') 64bit built on Feb  8 2015 15:12:28
Writing library                          : libebml v1.3.1 + libmatroska v1.4.2
DURATION                                 : 00:00:03.754000000
NUMBER_OF_FRAMES                         : 1
NUMBER_OF_BYTES                          : 42
_STATISTICS_WRITING_APP                  : mkvmerge v7.6.0 ('Garden of Dreams') 64bit built on Feb  8 2015 15:12:28
_STATISTICS_WRITING_DATE_UTC             : 2018-02-26 15:19:24
_STATISTICS_TAGS                         : BPS DURATION NUMBER_OF_FRAMES NUMBER_OF_BYTES

Video
ID                                       : 1
Format                                   : AVC
Format/Info                              : Advanced Video Codec
Format profile                           : [email protected]
Format settings, CABAC                   : Yes
Format settings, ReFrames                : 4 frames
Codec ID                                 : V_MPEG4/ISO/AVC
Duration                                 : 2h 10mn
Bit rate                                 : 11.3 Mbps
Width                                    : 1 920 pixels
Height                                   : 1 012 pixels
Display aspect ratio                     : 1.897
Frame rate                               : 23.976 fps
Color space                              : YUV
Chroma subsampling                       : 4:2:0
Bit depth                                : 8 bits
Scan type                                : Progressive
Bits/(Pixel*Frame)                       : 0.243
Stream size                              : 10.1 GiB (84%)
Writing library                          : x264 core 148 r2705 3f5ed56
Encoding settings                        : cabac=1 / ref=4 / deblock=1:-2:-2 / analyse=0x3:0x133 / me=umh / subme=11 / psy=1 / psy_rd=1.05:0.05 / mixed_ref=1 / me_range=48 / chroma_me=1 / trellis=2 / 8x8dct=1 / cqm=0 / deadzone=21,11 / fast_pskip=0 / chroma_qp_offset=-3 / threads=32 / lookahead_threads=4 / sliced_threads=0 / nr=0 / decimate=0 / interlaced=0 / bluray_compat=0 / constrained_intra=0 / bframes=8 / b_pyramid=2 / b_adapt=2 / b_bias=0 / direct=3 / weightb=1 / open_gop=0 / weightp=2 / keyint=240 / keyint_min=23 / scenecut=40 / intra_refresh=0 / rc_lookahead=50 / rc=2pass / mbtree=0 / bitrate=11300 / ratetol=1.0 / qcomp=0.60 / qpmin=0 / qpmax=69 / qpstep=4 / cplxblur=20.0 / qblur=0.5 / vbv_maxrate=50000 / vbv_bufsize=62500 / nal_hrd=none / filler=0 / ip_ratio=1.40 / pb_ratio=1.30 / aq=3:0.80
Language                                 : English
Default                                  : Yes
Forced                                   : No
DURATION                                 : 02:10:30.698000000
NUMBER_OF_FRAMES                         : 187749
NUMBER_OF_BYTES                          : 11058531986
_STATISTICS_WRITING_APP                  : mkvmerge v7.6.0 ('Garden of Dreams') 64bit built on Feb  8 2015 15:12:28
_STATISTICS_WRITING_DATE_UTC             : 2018-02-26 15:19:24
_STATISTICS_TAGS                         : BPS DURATION NUMBER_OF_FRAMES NUMBER_OF_BYTES

Audio #1
ID                                       : 2
Format                                   : AC-3
Format/Info                              : Audio Coding 3
Mode extension                           : CM (complete main)
Codec ID                                 : A_AC3
Duration                                 : 2h 10mn
Bit rate mode                            : Constant
Bit rate                                 : 384 Kbps
Channel(s)                               : 6 channels
Channel positions                        : Front: L C R, Side: L R, LFE
Sampling rate                            : 48.0 KHz
Bit depth                                : 16 bits
Compression mode                         : Lossy
Delay relative to video                  : 37ms
Stream size                              : 358 MiB (3%)
Title                                    : ITA
Language                                 : Italian
Default                                  : Yes
Forced                                   : Yes
DURATION                                 : 02:10:30.080000000
NUMBER_OF_FRAMES                         : 244690
NUMBER_OF_BYTES                          : 375843840
_STATISTICS_WRITING_APP                  : mkvmerge v7.6.0 ('Garden of Dreams') 64bit built on Feb  8 2015 15:12:28
_STATISTICS_WRITING_DATE_UTC             : 2018-02-26 15:19:24
_STATISTICS_TAGS                         : BPS DURATION NUMBER_OF_FRAMES NUMBER_OF_BYTES

Audio #2
ID                                       : 3
Format                                   : DTS
Format/Info                              : Digital Theater Systems
Codec ID                                 : A_DTS
Duration                                 : 2h 10mn
Bit rate mode                            : Constant
Bit rate                                 : 1 510 Kbps
Channel(s)                               : 6 channels
Channel positions                        : Front: L C R, Side: L R, LFE
Sampling rate                            : 48.0 KHz
Bit depth                                : 24 bits
Compression mode                         : Lossy
Stream size                              : 1.38 GiB (11%)
Title                                    : ENG
Language                                 : English
Default                                  : No
Forced                                   : No

Text #1
ID                                       : 4
Format                                   : UTF-8
Codec ID                                 : S_TEXT/UTF8
Codec ID/Info                            : UTF-8 Plain Text
Title                                    : ITA - Forced
Language                                 : Italian
Default                                  : Yes
Forced                                   : Yes

Text #2
ID                                       : 5
Format                                   : UTF-8
Codec ID                                 : S_TEXT/UTF8
Codec ID/Info                            : UTF-8 Plain Text
Language                                 : Italian
Default                                  : No
Forced                                   : No

Text #3
ID                                       : 6
Format                                   : UTF-8
Codec ID                                 : S_TEXT/UTF8
Codec ID/Info                            : UTF-8 Plain Text
Language                                 : English
Default                                  : No
Forced                                   : No

Menu
00:00:00.000                             : en:Chapter 1
00:06:20.670                             : en:Chapter 2
00:06:20.672                             : en:Chapter 3
00:14:11.642                             : en:Chapter 4
00:22:12.873                             : en:Chapter 5
00:26:43.058                             : en:Chapter 6
00:31:29.721                             : en:Chapter 7
00:35:03.934                             : en:Chapter 8 / en:Chapter 9
00:42:49.733                             : en:Chapter 10
00:48:31.532                             : en:Chapter 11
00:48:31.534                             : en:Chapter 12
00:59:38.782                             : en:Chapter 13
00:59:38.784                             : en:Chapter 14
01:07:57.907                             : en:Chapter 15
01:17:30.604                             : en:Chapter 16
01:27:25.323                             : en:Chapter 17
01:36:08.720                             : en:Chapter 18 / en:Chapter 19
01:42:35.731                             : en:Chapter 20
01:42:35.733                             : en:Chapter 21
01:49:19.886                             : en:Chapter 22
01:54:57.599                             : en:Chapter 23
02:00:37.520                             : en:Chapter 24


[/spoiler]








RESTATE IN SEED ALTRIMENTI

 [/center]

[center][/center]

Info: Per scaricare devi usare un client come uTorrent o Transmission
AnnounceURL
udp://tracker.opentrackr.org:1337/announce
Hash 4ef2a82032d2dc6413cc96d6a9c936dd17d9cac2
Peers seeds: 5 , leech: 48
Size 12.03 GB
Completato 2x
Aggiunto 27.02.18 - 02:02:29
Uploader   ppb1
Votazione (Voti: 2)


Condividi questo bittorrent:


html/blog:


bbcode/forum:




Aggiungi Commento
Ultimi commenti
avatar     
perfetto audio e video 10/10!! la visualizzazione aperto in VLC andare so opzioni video poi su proporzioni e mettere 2.35.1
10/09 11.21
  
Anche a voi compaiono delle strane bande nere a sinistra?
01/03 00.37
Tutti commenti (2)


counter