Loading...
 * Dettagli Torrent   globale  | Commenti (0) 


- All Eyez On Me (2017).H264.italian.english.Ac3-5.1.sub.ita.MIRCrew -


Download via torrent:
Categoria bittorrent BDRip
Descrizione
All Eyez On Me (2017).H264.italian.english.Ac3-5.1.sub.ita.MIRCrew


NO FOUND ONLY ORIGINAL RELEASE



My release is always in double track audio italian and Original audio
for select it use VLC or dvd player home
not use wmp

All Eyez On Me

(2017)







GENERE: Biografico, Drammatico, Musicale
ANNO: 2017
REGIA: Benny Boom
PAESE: USA
DURATA: 137 Min



Demetrius Shipp Jr., Lauren Cohan, Danai Jekesai Gurira, Jamal Woolard, Katerina Graham, Dominic L. Santana



Tupac è stato tanto un musicista innovativo, importante riferimento negli anni '90 per tutta la Black America, quanto un personaggio spinoso e controverso, cresciuto tra la violenza e la povertà del ghetto.......



Tells the true and untold story of prolific rapper, actor, poet and activist Tupac Shakur. The film follows Shakur from his early days in New York City to his evolution into being one of the world's most recognized and influential voices before his untimely death at the age of 25........












General
Unique ID                                : 26153415263443239060968099529200304498 (0x13ACF6ED6DF0AEA12C3F0C5A47050172)
Complete name                            : All Eyez On Me (2017).H264.ita.eng.sub.ita-MIRCrew.mkv
Format                                   : Matroska
Format version                           : Version 2
File size                                : 2.15 GiB
Duration                                 : 2h 19mn
Overall bit rate                         : 2 195 Kbps
Movie name                               : MIRCrew
Encoded date                             : UTC 2018-02-18 17:50:18
Writing application                      : Lavf54.63.100
Writing library                          : Lavf54.63.100
COPYRIGHT                                : robbyrs-iCN

Video
ID                                       : 1
Format                                   : AVC
Format/Info                              : Advanced Video Codec
Format profile                           : [email protected]
Format settings, CABAC                   : Yes
Format settings, ReFrames                : 2 frames
Codec ID                                 : V_MPEG4/ISO/AVC
Duration                                 : 2h 19mn
Bit rate                                 : 1 300 Kbps
Width                                    : 720 pixels
Height                                   : 304 pixels
Display aspect ratio                     : 2.40:1
Frame rate mode                          : Variable
Frame rate                               : 24.000 fps
Color space                              : YUV
Chroma subsampling                       : 4:2:0
Bit depth                                : 8 bits
Scan type                                : Progressive
Bits/(Pixel*Frame)                       : 0.247
Stream size                              : 1.23 GiB (57%)
Writing library                          : x264 core 130 r2273
Encoding settings                        : cabac=1 / ref=2 / deblock=1:0:0 / analyse=0x1:0x131 / me=hex / subme=7 / psy=1 / psy_rd=1.00:0.00 / mixed_ref=0 / me_range=16 / chroma_me=1 / trellis=1 / 8x8dct=0 / cqm=0 / deadzone=21,11 / fast_pskip=1 / chroma_qp_offset=-2 / threads=3 / lookahead_threads=1 / sliced_threads=0 / nr=0 / decimate=1 / interlaced=0 / bluray_compat=0 / constrained_intra=0 / bframes=3 / b_pyramid=0 / b_adapt=1 / b_bias=0 / direct=3 / weightb=1 / open_gop=0 / weightp=2 / keyint=240 / keyint_min=24 / scenecut=40 / intra_refresh=0 / rc_lookahead=40 / rc=abr / mbtree=1 / bitrate=1300 / ratetol=1.0 / qcomp=0.60 / qpmin=10 / qpmax=69 / qpstep=4 / vbv_maxrate=24000 / vbv_bufsize=24000 / nal_hrd=none / ip_ratio=1.40 / aq=1:1.00
Language                                 : Italian
Default                                  : Yes
Forced                                   : No
DURATION                                 : 02:19:58.000000000
NUMBER_OF_FRAMES                         : 201552
NUMBER_OF_BYTES                          : 8089281093
_STATISTICS_WRITING_APP                  : mkvmerge v15.0.0 ('Duel with the Devil') 64-bit
_STATISTICS_WRITING_DATE_UTC             : 2018-01-12 17:49:25
_STATISTICS_TAGS                         : BPS DURATION NUMBER_OF_FRAMES NUMBER_OF_BYTES

Audio #1
ID                                       : 2
Format                                   : AC-3
Format/Info                              : Audio Coding 3
Mode extension                           : CM (complete main)
Codec ID                                 : A_AC3
Duration                                 : 2h 19mn
Bit rate mode                            : Constant
Bit rate                                 : 448 Kbps
Channel(s)                               : 6 channels
Channel positions                        : Front: L C R, Side: L R, LFE
Sampling rate                            : 48.0 KHz
Bit depth                                : 16 bits
Compression mode                         : Lossy
Delay relative to video                  : 1mn 5s
Stream size                              : 449 MiB (20%)
Language                                 : Italian
Default                                  : No
Forced                                   : No
DURATION                                 : 02:19:40.128000000
NUMBER_OF_FRAMES                         : 261879
NUMBER_OF_BYTES                          : 670410240
_STATISTICS_WRITING_APP                  : mkvmerge v15.0.0 ('Duel with the Devil') 64-bit
_STATISTICS_WRITING_DATE_UTC             : 2018-01-12 17:49:25
_STATISTICS_TAGS                         : BPS DURATION NUMBER_OF_FRAMES NUMBER_OF_BYTES

Audio #2
ID                                       : 3
Format                                   : AC-3
Format/Info                              : Audio Coding 3
Mode extension                           : CM (complete main)
Codec ID                                 : A_AC3
Duration                                 : 2h 19mn
Bit rate mode                            : Constant
Bit rate                                 : 448 Kbps
Channel(s)                               : 6 channels
Channel positions                        : Front: L C R, Side: L R, LFE
Sampling rate                            : 48.0 KHz
Bit depth                                : 16 bits
Compression mode                         : Lossy
Delay relative to video                  : 1mn 5s
Stream size                              : 449 MiB (20%)
Language                                 : English
Default                                  : No
Forced                                   : No
DURATION                                 : 02:19:56.982000000
NUMBER_OF_FRAMES                         : 787217
NUMBER_OF_BYTES                          : 1583880604
_STATISTICS_WRITING_APP                  : mkvmerge v15.0.0 ('Duel with the Devil') 64-bit
_STATISTICS_WRITING_DATE_UTC             : 2018-01-12 17:49:25
_STATISTICS_TAGS                         : BPS DURATION NUMBER_OF_FRAMES NUMBER_OF_BYTES

Menu
00:00:00.000                             : :00:00:00.000
00:11:12.744                             : :00:11:12.744
00:22:53.001                             : :00:22:53.001
00:34:56.111                             : :00:34:56.111
00:47:41.055                             : :00:47:41.055
00:57:56.356                             : :00:57:56.356
01:10:17.407                             : :01:10:17.407
01:22:00.996                             : :01:22:00.996
01:32:12.467                             : :01:32:12.467
01:43:59.510                             : :01:43:59.510
01:55:34.440                             : :01:55:34.440
02:08:43.318                             : :02:08:43.318



Info: Per scaricare devi usare un client come uTorrent o Transmission
AnnounceURL
udp://tracker.coppersurfer.tk:6969/announce
Hash b089c95c914b6e4daac9a94642cc496818959ccb
Peers seeds: 99 , leech: 22
Size 2.15 GB
Completato 1785x
Aggiunto 26.02.18 - 11:02:30
Uploader   robbyrs
Votazione (Voti: 0)


Condividi questo bittorrent:


html/blog:


bbcode/forum:




Aggiungi Commento


counter