* Dettagli Torrent   globale  | Commenti (0) 


- Mr.Robot.3x03.Eredita.ITA.ENG.1080p.AMZN.WEB-DLMux.H.264-Morpheus.mkv -


Download via torrent:
Categoria bittorrent SerieTv
Descrizione
[center]

GIUSEPPEiCV & LITTLELINX
HANNO IL PIACERE DI PRESENTARE


STAGIONE 3
WEB-DLMUX 1080p
Dual Language ITA - ENG
Sub ITA - ENG




.: Dati Serie :.

Nazione: Stati Uniti d'America
Anno: 2017
Genere: thriller, drammatico
Stagioni 3
Episodi: 10
Durata: 45 min circa
Lingua: ITA - ENG
Ideatore : Sam Esmail
Cast:
Rami Malek: Elliot Alderson
Carly Chaikin: Darlene Alderson
Portia Doubleday: Angela Moss
Martin Wallström: Tyrell Wellick
Christian Slater: Mr. Robot
Michael Cristofer: Phillip Price
Stephanie Corneliussen: Joanna Wellick
Grace Gummer: Dominique "Dom" DiPierro
BD Wong: Whiterose/Zhang
Bobby Cannavale: Irving


.: Trama  :.

Follows Elliot, a young programmer working as a cyber-security engineer by day, and a vigilante hacker by night.

Elliot Alderson e' un giovane informatico che vive e lavora a New York come esperto di sicurezza informatica nella "AllSafe", ma nella vita privata e' uno stalker telematico con l'ossessione di conoscere i segreti delle persone. Un giorno Alderson viene contattato da una misteriosa persona, che si fa chiamare Mr. Robot, con l'intento di entrare attivamente in un gruppo di ribelli, conosciuti come fsociety, il cui obiettivo e' quello di liberare il mondo dall'oppressione delle banche e della finanza


.: Screenshot :.



.: Caratteristiche Tecniche :.
[spoiler]
Mr.Robot.3x01.Modalita.Risparmio.Energetico.ITA.ENG.1080p.AMZN.WEB-DLMux.H.264-Morpheus.mkv
Format                                   : Matroska
Format version                           : Version 4 / Version 2
File size                                : 2.77 GiB
Duration                                 : 51mn 13s
Overall bit rate mode                    : Variable
Overall bit rate                         : 7 745 Kbps
Encoded date                             : UTC 2018-01-31 02:26:03
Writing application                      : mkvmerge v7.6.0 ('Garden of Dreams') 64bit built on Feb  8 2015 15:12:28
Writing library                          : libebml v1.3.1 + libmatroska v1.4.2
DURATION                                 : 00:51:13.056000000
NUMBER_OF_FRAMES                         : 96033
NUMBER_OF_BYTES                          : 147506688
_STATISTICS_WRITING_APP                  : mkvmerge v7.6.0 ('Garden of Dreams') 64bit built on Feb  8 2015 15:12:28
_STATISTICS_WRITING_DATE_UTC             : 2018-01-31 02:26:03
_STATISTICS_TAGS                         : BPS DURATION NUMBER_OF_FRAMES NUMBER_OF_BYTES

Video
ID                                       : 1
Format                                   : AVC
Format/Info                              : Advanced Video Codec
Format profile                           : [email protected]
Format settings, CABAC                   : Yes
Format settings, ReFrames                : 4 frames
Codec ID                                 : V_MPEG4/ISO/AVC
Duration                                 : 51mn 13s
Bit rate mode                            : Variable
Bit rate                                 : 7 015 Kbps
Maximum bit rate                         : 15.0 Mbps
Width                                    : 1 920 pixels
Height                                   : 1 080 pixels
Display aspect ratio                     : 16:9
Frame rate                               : 25.000 fps
Original frame rate                      : 23.976 fps
Color space                              : YUV
Chroma subsampling                       : 4:2:0
Bit depth                                : 8 bits
Scan type                                : Progressive
Bits/(Pixel*Frame)                       : 0.135
Stream size                              : 2.51 GiB (91%)
Default                                  : Yes
Forced                                   : No
Color primaries                          : BT.709-5, BT.1361, IEC 61966-2-4, SMPTE RP177
Transfer characteristics                 : BT.709-5, BT.1361
Matrix coefficients                      : BT.709-5, BT.1361, IEC 61966-2-4 709, SMPTE RP177

Audio #1
ID                                       : 2
Format                                   : AC-3
Format/Info                              : Audio Coding 3
Mode extension                           : CM (complete main)
Codec ID                                 : A_AC3
Duration                                 : 51mn 13s
Bit rate mode                            : Constant
Bit rate                                 : 192 Kbps
Channel(s)                               : 2 channels
Channel positions                        : Front: L R
Sampling rate                            : 48.0 KHz
Bit depth                                : 16 bits
Compression mode                         : Lossy
Stream size                              : 70.3 MiB (2%)
Title                                    : ITA
Language                                 : Italian
Default                                  : Yes
Forced                                   : Yes

Audio #2
ID                                       : 3
Format                                   : AC-3
Format/Info                              : Audio Coding 3
Mode extension                           : CM (complete main)
Codec ID                                 : A_AC3
Duration                                 : 51mn 13s
Bit rate mode                            : Constant
Bit rate                                 : 384 Kbps
Channel(s)                               : 6 channels
Channel positions                        : Front: L C R, Side: L R, LFE
Sampling rate                            : 48.0 KHz
Bit depth                                : 16 bits
Compression mode                         : Lossy
Stream size                              : 141 MiB (5%)
Title                                    : ENG
Language                                 : English
Default                                  : No
Forced                                   : No

Text #1
ID                                       : 4
Format                                   : UTF-8
Codec ID                                 : S_TEXT/UTF8
Codec ID/Info                            : UTF-8 Plain Text
Title                                    : ITA - Forced
Language                                 : Italian
Default                                  : Yes
Forced                                   : Yes

Text #2
ID                                       : 5
Format                                   : UTF-8
Codec ID                                 : S_TEXT/UTF8
Codec ID/Info                            : UTF-8 Plain Text
Language                                 : Italian
Default                                  : No
Forced                                   : No

Text #3
ID                                       : 6
Format                                   : UTF-8
Codec ID                                 : S_TEXT/UTF8
Codec ID/Info                            : UTF-8 Plain Text
Language                                 : English
Default                                  : No
Forced                                   : No


[/spoiler]

.: Ringraziamenti :.




RESTATE IN SEED ALTRIMENTI

 



[/center]
Info: Per scaricare devi usare un client come uTorrent o Transmission
AnnounceURL
http://tracker.tntvillage.scambioetico.org:2710/announce
Hash a858dd9642ccf3317fb60aa5589fd15bdd25caa5
Peers seeds: 78 , leech: 21
Size 2.49 GB
Completato 534x
Aggiunto 24.02.18 - 22:02:44
Uploader   ppb1
Votazione (Voti: 0)


Condividi questo bittorrent:


html/blog:


bbcode/forum:




Aggiungi Commento


counter