* Dettagli Torrent   globale  | Commenti (0) 


- Free Fire (2016).H264.italian.english.Ac3-5.1.sub.ita.eng.MIRCrew -


Download via torrent:
Categoria bittorrent BDRip
Descrizione
Free Fire (2016).H264.italian.english.Ac3-5.1.sub.ita.eng.MIRCrew


NO FOUND ONLY ORIGINAL RELEASE



My release is always in double track audio italian and Original audio
for select it use VLC or dvd player home
not use wmp

Free Fire

(2016)







Riconoscimenti

   2016 - Toronto International Film Festival
       Grolsch People's Choice Midnight Madness Award
   2016 - British Independent Film Awards
       Candidatura per il miglior regista a Ben Wheatley

Titolo originale Free Fire
Lingua originale inglese
Paese di produzione Regno Unito
Anno 2016
Durata 90 min
Rapporto 2.35: 1
Genere azione, drammatico, thriller, commedia
Regia Ben Wheatley
Sceneggiatura Amy Jump, Ben Wheatley
Produttore Andrew Starke
Produttore esecutivo Lizzie Francke, David Kosse, Sam Lavender, Danny Perkins, Ben Roberts, Martin Scorsese
Casa di produzione Film4, Protagonist Pictures, Rook Films
Distribuzione (Italia) Movies Inspired
Fotografia Laurie Rose
Montaggio Amy Jump, Ben Wheatley
Musiche Geoff Barrow, Ben Salisbury
Scenografia Paki Smith



   Sharlto Copley: Vernon
   Armie Hammer: Ord
   Brie Larson: Justine
   Cillian Murphy: Chris
   Jack Reynor: Harry
   Babou Ceesay: Martin
   Enzo Cilenti: Bernie
   Sam Riley: Stevo
   Michael Smiley: Frank
   Noah Taylor: Gordon
   Patrick Bergin: Howie
   Tom Davis: Leary
   Mark Monero: Jimmy



Prima che l'ambiziosa ereditiera Ellen Langford possa ereditare l'azienda di suo padre, deve consegnare una speciale lettera di Natale ad un grande amico e vecchio socio di suo padre che si trova a Snow Falls........................



Set in Boston in 1978, a meeting in a deserted warehouse between two gangs turns into a shootout and a game of survival. ..........













[spoiler]
General
Unique ID                                : 182008564771449596238844396630775883371 (0x88ED93129E09172CBA3C0BEE0F66E66B)
Complete name                            : Free Fire (2016).H264.ita.eng.sub.ita.eng-MIRCrew\Free Fire (2016).H264.ita.eng.sub.ita.eng-MIRCrew.mkv
Format                                   : Matroska
Format version                           : Version 2
File size                                : 1.67 GiB
Duration                                 : 1h 30mn
Overall bit rate                         : 2 629 Kbps
Movie name                               : MIRCrew
Encoded date                             : UTC 2018-02-07 16:04:42
Writing application                      : mkvmerge v5.4.0 ('Piper') built on Mar 10 2012 13:34:39
Writing library                          : Lavf54.63.100
COPYRIGHT                                : robbyrs-iCN

Video
ID                                       : 1
Format                                   : AVC
Format/Info                              : Advanced Video Codec
Format profile                           : [email protected]
Format settings, CABAC                   : Yes
Format settings, ReFrames                : 2 frames
Codec ID                                 : V_MPEG4/ISO/AVC
Duration                                 : 1h 30mn
Bit rate                                 : 1 750 Kbps
Width                                    : 1 280 pixels
Height                                   : 528 pixels
Display aspect ratio                     : 2.40:1
Frame rate mode                          : Variable
Frame rate                               : 23.976 fps
Color space                              : YUV
Chroma subsampling                       : 4:2:0
Bit depth                                : 8 bits
Scan type                                : Progressive
Bits/(Pixel*Frame)                       : 0.108
Stream size                              : 1.07 GiB (64%)
Title                                    : Free Fire (2016).H264.ita.eng.sub.ita.eng-MIRCrew
Writing library                          : x264 core 130 r2273
Encoding settings                        : cabac=1 / ref=2 / deblock=1:0:0 / analyse=0x1:0x131 / me=hex / subme=7 / psy=1 / psy_rd=1.00:0.00 / mixed_ref=0 / me_range=16 / chroma_me=1 / trellis=1 / 8x8dct=0 / cqm=0 / deadzone=21,11 / fast_pskip=1 / chroma_qp_offset=-2 / threads=3 / lookahead_threads=1 / sliced_threads=0 / nr=0 / decimate=1 / interlaced=0 / bluray_compat=0 / constrained_intra=0 / bframes=3 / b_pyramid=0 / b_adapt=1 / b_bias=0 / direct=3 / weightb=1 / open_gop=0 / weightp=2 / keyint=230 / keyint_min=23 / scenecut=40 / intra_refresh=0 / rc_lookahead=40 / rc=abr / mbtree=1 / bitrate=1750 / ratetol=1.0 / qcomp=0.60 / qpmin=10 / qpmax=69 / qpstep=4 / vbv_maxrate=24000 / vbv_bufsize=24000 / nal_hrd=none / ip_ratio=1.40 / aq=1:1.00
Language                                 : Italian
Default                                  : Yes
Forced                                   : No
DURATION                                 : 01:30:34.429000000
NUMBER_OF_FRAMES                         : 130296
NUMBER_OF_BYTES                          : 5191731453
_STATISTICS_WRITING_APP                  : mkvmerge v15.0.0 ('Duel with the Devil') 64-bit
_STATISTICS_WRITING_DATE_UTC             : 2018-02-07 16:04:42
_STATISTICS_TAGS                         : BPS DURATION NUMBER_OF_FRAMES NUMBER_OF_BYTES

Audio #1
ID                                       : 2
Format                                   : AC-3
Format/Info                              : Audio Coding 3
Mode extension                           : CM (complete main)
Codec ID                                 : A_AC3
Duration                                 : 1h 30mn
Bit rate mode                            : Constant
Bit rate                                 : 448 Kbps
Channel(s)                               : 6 channels
Channel positions                        : Front: L C R, Side: L R, LFE
Sampling rate                            : 48.0 KHz
Bit depth                                : 16 bits
Compression mode                         : Lossy
Delay relative to video                  : -5ms
Stream size                              : 291 MiB (17%)
Title                                    : ita ac3 5.1
Language                                 : Italian
Default                                  : Yes
Forced                                   : No
DURATION                                 : 01:30:48.640000000
NUMBER_OF_FRAMES                         : 170270
NUMBER_OF_BYTES                          : 305123840
_STATISTICS_WRITING_APP                  : mkvmerge v15.0.0 ('Duel with the Devil') 64-bit
_STATISTICS_WRITING_DATE_UTC             : 2018-02-07 16:04:42
_STATISTICS_TAGS                         : BPS DURATION NUMBER_OF_FRAMES NUMBER_OF_BYTES

Audio #2
ID                                       : 3
Format                                   : AC-3
Format/Info                              : Audio Coding 3
Mode extension                           : CM (complete main)
Codec ID                                 : A_AC3
Duration                                 : 1h 30mn
Bit rate mode                            : Constant
Bit rate                                 : 448 Kbps
Channel(s)                               : 6 channels
Channel positions                        : Front: L C R, Side: L R, LFE
Sampling rate                            : 48.0 KHz
Bit depth                                : 16 bits
Compression mode                         : Lossy
Delay relative to video                  : -5ms
Stream size                              : 291 MiB (17%)
Title                                    : eng ac3 5.1
Language                                 : English
Default                                  : No
Forced                                   : No
DURATION                                 : 01:30:34.475000000
NUMBER_OF_FRAMES                         : 509482
NUMBER_OF_BYTES                          : 1025078788
_STATISTICS_WRITING_APP                  : mkvmerge v15.0.0 ('Duel with the Devil') 64-bit
_STATISTICS_WRITING_DATE_UTC             : 2018-02-07 16:04:42
_STATISTICS_TAGS                         : BPS DURATION NUMBER_OF_FRAMES NUMBER_OF_BYTES

Menu
00:00:00.000                             : :00:00:00.000
00:07:31.368                             : :00:07:31.368
00:09:32.655                             : :00:09:32.655
00:15:12.036                             : :00:15:12.036
00:20:35.693                             : :00:20:35.693
00:27:40.867                             : :00:27:40.867
00:32:48.300                             : :00:32:48.300
00:37:54.022                             : :00:37:54.022
00:43:09.795                             : :00:43:09.795
00:48:48.008                             : :00:48:48.008
00:54:27.639                             : :00:54:27.639
00:59:18.096                             : :00:59:18.096
01:05:36.432                             : :01:05:36.432
01:09:08.102                             : :01:09:08.102
01:15:16.887                             : :01:15:16.887
01:22:35.117                             : :01:22:35.117






Info: Per scaricare devi usare un client come uTorrent o Transmission
AnnounceURL
udp://tracker.coppersurfer.tk:6969/announce
Hash e96f33ddae4a0e939bf726467898445d1c2a92f5
Peers seeds: 92 , leech: 19
Size 1.67 GB
Completato 3154x
Aggiunto 14.02.18 - 11:02:19
Uploader   robbyrs
Votazione (Voti: 1)


Condividi questo bittorrent:


html/blog:


bbcode/forum:




Aggiungi Commento


counter